<?xml version="1.0" standalone="no"?>
<!DOCTYPE svg PUBLIC "-//W3C//DTD SVG 1.1//EN" "http://www.w3.org/Graphics/SVG/1.1/DTD/svg11.dtd" >
<svg xmlns="http://www.w3.org/2000/svg">
<metadata>
This is a custom SVG webfont generated by Font Squirrel.
Copyright   : Copyright c Mark Simonson 2005 All rights reserved
Designer    : Mark Simonson
Foundry URL : httpwwwmarksimonsoncom
</metadata>
<defs>
<font id="ProximaNovaBold" horiz-adv-x="559" >
<font-face units-per-em="2048" ascent="1618" descent="-430" />
<missing-glyph horiz-adv-x="567" />
<glyph unicode=" "  horiz-adv-x="567" />
<glyph unicode="&#x09;" horiz-adv-x="567" />
<glyph unicode="&#xa0;" horiz-adv-x="567" />
<glyph unicode="!" horiz-adv-x="563" d="M106 156q0 72 52.5 125t125 53t126 -53.5t53.5 -124.5q0 -72 -53.5 -125.5t-126 -53.5t-125 53.5t-52.5 125.5zM113 1475h338l-43 -994h-248z" />
<glyph unicode="&#x22;" horiz-adv-x="897" d="M98 1346q0 61 44 106t108 45q61 0 107 -45t46 -106l-92 -517h-123q-90 474 -90 517zM498 1346q0 61 45 106t107.5 45t107.5 -45t45 -106l-90 -517h-125q-90 474 -90 517z" />
<glyph unicode="#" horiz-adv-x="1366" d="M37 377l57 178h217l121 365h-215l55 178h222l122 377h209l-125 -377h209l123 377h211l-129 -377h215l-51 -178h-223l-121 -365h223l-55 -178h-228l-124 -377h-209l127 377h-209l-127 -377h-209l127 377h-213zM520 555h205l123 365h-209z" />
<glyph unicode="$" horiz-adv-x="1357" d="M66 209l174 244q145 -152 350 -189v342q-100 25 -171 52.5t-147.5 75.5t-116.5 127t-40 188q0 172 128 296.5t347 147.5v205h209v-209q272 -31 450 -197l-174 -235q-113 104 -276 143v-305q104 -27 176 -54.5t150.5 -76.5t118.5 -129t40 -189q0 -190 -125 -317t-360 -152 v-198h-209v198q-319 27 -524 232zM438 1073q0 -78 152 -127v268q-72 -8 -112 -46t-40 -95zM799 258q82 16 124 59t42 99q0 51 -42 81.5t-124 57.5v-297z" />
<glyph unicode="%" horiz-adv-x="1675" d="M57 1128q0 160 104.5 264.5t270.5 104.5q168 0 271.5 -104.5t103.5 -264.5q0 -158 -103.5 -261t-271.5 -103q-166 0 -270.5 103t-104.5 261zM256 1128q0 -86 50 -139t126 -53t126 53t50 139q0 90 -50 143.5t-126 53.5t-126 -54.5t-50 -142.5zM287 0l942 1475h170 l-946 -1475h-166zM868 338q0 160 104.5 266.5t270.5 106.5t271.5 -106.5t105.5 -266.5q0 -156 -105.5 -260.5t-271.5 -104.5t-270.5 104.5t-104.5 260.5zM1069 338q0 -88 48 -140.5t126 -52.5t127 52.5t49 140.5q0 92 -49 144.5t-127 52.5t-126 -52.5t-48 -144.5z" />
<glyph unicode="&#x26;" horiz-adv-x="1429" d="M53 399q0 154 85 253.5t233 174.5q-96 176 -97 316q0 152 118 253t302 101q164 0 275.5 -84t111.5 -227q0 -80 -28.5 -144.5t-86 -112.5t-109.5 -78t-136 -71q61 -84 127 -159q63 -78 125 -152q90 141 135 287l223 -103q-96 -215 -205 -354q90 -100 285 -299h-358 q-47 45 -111 111q-180 -137 -401 -138q-213 0 -350.5 110.5t-137.5 315.5zM352 426q0 -102 66.5 -166.5t161.5 -64.5q109 0 213 75q-111 121 -164 189q-98 119 -150 194q-127 -92 -127 -227zM553 1137q0 -84 63 -199q109 51 165.5 104.5t56.5 126.5q0 57 -37 91t-92 34 q-68 0 -112 -43.5t-44 -113.5z" />
<glyph unicode="'" horiz-adv-x="497" d="M98 1346q0 61 44 106t108 45q61 0 107 -45t46 -106l-92 -517h-123q-90 474 -90 517z" />
<glyph unicode="(" horiz-adv-x="655" d="M90 537.5q0 267.5 95.5 532.5t256.5 446l174 -134q-115 -211 -169 -407.5t-54 -437t54.5 -438t168.5 -402.5l-174 -137q-162 180 -257 445t-95 532.5z" />
<glyph unicode=")" horiz-adv-x="657" d="M39 -303l176 -137q162 182 258 446t96 531.5t-96 531.5t-258 447l-176 -134q117 -209 171 -405.5t54 -439.5q0 -240 -54 -438.5t-171 -401.5z" />
<glyph unicode="*" horiz-adv-x="776" d="M55 1042l215 113l-215 111l72 118l203 -131l-11 244h140l-13 -244l205 131l70 -118l-215 -111l215 -113l-70 -120l-205 131l13 -244h-140l11 244l-203 -131z" />
<glyph unicode="+" horiz-adv-x="1114" d="M63 659v175h400v434h192v-434h396v-175h-396v-448h-192v448h-400z" />
<glyph unicode="," horiz-adv-x="563" d="M104 158q0 72 52.5 124t122.5 52q82 0 139 -60.5t57 -164.5q0 -121 -60.5 -228.5t-166.5 -183.5l-121 100q55 29 105.5 89.5t64.5 117.5q-20 -6 -43 -6q-63 0 -106.5 45t-43.5 115z" />
<glyph unicode="-" horiz-adv-x="663" d="M66 416v239h532v-239h-532z" />
<glyph unicode="." horiz-adv-x="567" d="M104 154.5q0 72.5 53.5 126t126 53.5t126 -53.5t53.5 -126t-53.5 -126t-126 -53.5t-126 53.5t-53.5 126z" />
<glyph unicode="/" horiz-adv-x="727" d="M0 -45l524 1565h203l-524 -1565h-203z" />
<glyph unicode="0" horiz-adv-x="1370" d="M76 736.5q0 199.5 61.5 367.5t204.5 280.5t344 112.5t343 -112.5t204.5 -280.5t62.5 -367.5t-62.5 -367.5t-204.5 -282t-343 -114t-344 114t-204.5 282t-61.5 367.5zM395 737q0 -219 70 -352t220.5 -133t220 133t69.5 352q0 221 -69.5 351.5t-220 130.5t-220.5 -131.5 t-70 -350.5z" />
<glyph unicode="1" horiz-adv-x="907" d="M25 1008l464 467h275v-1475h-315v1071l-246 -250z" />
<glyph unicode="2" horiz-adv-x="1327" d="M72 1255q102 121 253.5 181.5t313.5 60.5q244 0 404.5 -128t160.5 -343q0 -180 -143 -354t-449 -396h602v-276h-1110v248q475 352 628 499.5t153 278.5q0 92 -70 142.5t-170 50.5q-231 0 -395 -170z" />
<glyph unicode="3" horiz-adv-x="1296" d="M45 211l166 209q72 -78 182.5 -123t220.5 -45q133 0 206 52t73 136q0 88 -70.5 129t-224.5 41q-139 0 -184 -4v283q27 -2 184 -2q274 0 274 157q0 84 -77.5 129.5t-196.5 45.5q-217 0 -377 -152l-158 197q209 233 566 233q258 0 407.5 -108.5t149.5 -290.5 q0 -133 -95.5 -223.5t-228.5 -112.5q131 -14 238.5 -108.5t107.5 -245.5q0 -193 -159.5 -314t-421.5 -121q-193 0 -344.5 66t-237.5 172z" />
<glyph unicode="4" horiz-adv-x="1318" d="M55 305v248l586 922h434v-893h191v-277h-191v-305h-313v305h-707zM362 582h400v614z" />
<glyph unicode="5" horiz-adv-x="1343" d="M109 195l174 219q156 -162 391 -162q127 0 200.5 63.5t73.5 155.5q0 100 -70.5 159.5t-193.5 59.5q-184 0 -309 -119l-219 60v844h1011v-277h-698v-360q123 125 326 125q197 0 335 -131.5t138 -346.5q0 -233 -162 -372.5t-430 -139.5q-364 1 -567 222z" />
<glyph unicode="6" horiz-adv-x="1343" d="M76 735q0 342 183 552t505 210q260 0 434 -151l-141 -242q-121 115 -293 115q-162 0 -266.5 -121t-104.5 -297q0 -20 2 -31q55 80 159.5 135.5t219.5 55.5q211 0 357.5 -127t146.5 -355q0 -219 -157.5 -362.5t-407.5 -143.5q-319 0 -478 212t-159 550zM395 551 q12 -125 85 -212t214 -87q119 0 191.5 66.5t72.5 150.5q0 109 -78.5 165t-193.5 56q-180 0 -291 -139z" />
<glyph unicode="7" horiz-adv-x="1204" d="M53 1198v277h1108v-220l-549 -1255h-344l529 1198h-744z" />
<glyph unicode="8" horiz-adv-x="1339" d="M78 383q0 127 88 228.5t227 150.5q-291 100 -291 346q0 133 87 223t211 128t270.5 38t269.5 -38t211 -128t88 -223q0 -244 -293 -346q139 -49 228.5 -150.5t89.5 -228.5q0 -195 -173 -302.5t-421 -107.5t-420 107.5t-172 302.5zM395 426q0 -76 79 -125t196 -49 q115 0 194.5 49t79.5 125q0 80 -89 130t-185 62q-55 -8 -112.5 -27.5t-110 -64.5t-52.5 -100zM420 1055q0 -70 77.5 -112t172.5 -58q94 16 171 58t77 112q0 78 -69 121t-179 43q-113 0 -181.5 -43t-68.5 -121z" />
<glyph unicode="9" horiz-adv-x="1343" d="M68 993q0 219 157.5 362.5t407.5 143.5q317 0 477 -212t160 -548q0 -344 -183.5 -554t-504.5 -210q-262 0 -435 154l140 240q123 -115 295 -115t270 123t98 293v32q-57 -78 -160.5 -133t-218.5 -55q-211 0 -357 127t-146 352zM387 1004q0 -109 80 -165.5t192 -56.5 q178 0 289 140q-10 125 -82.5 212t-214.5 87q-121 0 -192.5 -66.5t-71.5 -150.5z" />
<glyph unicode=":" horiz-adv-x="542" d="M104 154.5q0 72.5 53.5 126t126 53.5t126 -53.5t53.5 -126t-53.5 -126t-126 -53.5t-126 53.5t-53.5 126zM104 904q0 73 53.5 126t126 53t126 -53t53.5 -126t-53.5 -126t-126 -53t-126 53t-53.5 126z" />
<glyph unicode=";" horiz-adv-x="563" d="M104 166q0 74 52.5 125t122.5 51q82 0 139 -60.5t57 -166.5q0 -119 -60.5 -226.5t-166.5 -183.5l-121 100q55 29 105.5 89.5t64.5 117.5q-20 -6 -43 -6q-63 0 -106.5 46t-43.5 114zM104 906.5q0 72.5 53.5 124.5t126 52t126 -52t53.5 -124.5t-53.5 -127t-126 -54.5 t-126 54.5t-53.5 127z" />
<glyph unicode="&#x3c;" horiz-adv-x="1114" d="M63 639v203l988 440v-207l-785 -336l785 -331v-209z" />
<glyph unicode="=" horiz-adv-x="1114" d="M63 444v172h988v-172h-988zM63 860v174h988v-174h-988z" />
<glyph unicode="&#x3e;" horiz-adv-x="1114" d="M63 199v209l787 331l-787 336v207l988 -440v-203z" />
<glyph unicode="?" horiz-adv-x="1007" d="M20 1282q180 215 484 215q213 0 337 -96t124 -252q0 -90 -38 -160.5t-93.5 -115t-109.5 -82t-91 -81.5t-37 -96q0 -57 41 -92l-244 -71q-72 80 -71 196q0 90 50 160t111.5 104.5t111.5 83.5t50 99q0 55 -44 90t-130 35q-160 0 -272 -138zM322 154.5q0 72.5 52 126 t125.5 53.5t127 -53.5t53.5 -126t-53.5 -126t-127 -53.5t-125.5 53.5t-52 126z" />
<glyph unicode="@" horiz-adv-x="1730" d="M78 541q0 229 123 431t325.5 320.5t429.5 118.5q311 0 504 -195.5t193 -480.5q0 -258 -137.5 -402.5t-301.5 -144.5q-92 0 -146 47.5t-69 116.5l-2 13q-57 -82 -143 -129.5t-174 -47.5q-158 0 -251 103.5t-93 267.5q0 219 152.5 381t347 162t276.5 -150l25 119h249 l-112 -541q-6 -33 -6 -53q0 -98 82 -98q78 0 142 91t64 265q0 262 -165.5 426t-444.5 164q-311 0 -545.5 -234.5t-234.5 -545.5q0 -262 177 -439.5t448 -177.5q209 0 401 123l47 -67q-217 -139 -461 -140q-301 0 -500.5 201t-199.5 496zM596 582q0 -86 48 -140.5t132 -54.5 q141 0 246 145l55 259q-20 43 -65 77.5t-115 34.5q-127 0 -214 -97t-87 -224z" />
<glyph unicode="A" horiz-adv-x="1511" d="M-8 0l567 1475h393l570 -1475h-357l-92 250h-633l-92 -250h-356zM526 526h461l-231 635z" />
<glyph unicode="B" horiz-adv-x="1466" d="M145 0v1475h777q203 0 314.5 -110t111.5 -265q0 -133 -74 -225.5t-180 -112.5q119 -18 200.5 -121.5t81.5 -241.5q0 -174 -111.5 -286.5t-318.5 -112.5h-801zM461 276h405q90 0 139.5 44.5t49.5 123.5q0 74 -49.5 121t-139.5 47h-405v-336zM461 889h393q80 0 126 42 t46 113q0 68 -46 111t-126 43h-393v-309z" />
<glyph unicode="C" horiz-adv-x="1517" d="M76 737q0 338 224 550t562 212q414 0 615 -360l-269 -133q-49 94 -143 154.5t-203 60.5q-201 0 -333 -137.5t-132 -347.5t132.5 -347t332.5 -137q109 0 203 61.5t143 153.5l269 -131q-205 -362 -615 -363q-338 0 -562 213t-224 551z" />
<glyph unicode="D" horiz-adv-x="1587" d="M145 0v1475h582q348 0 566 -203t218 -533q0 -334 -217 -536.5t-565 -202.5h-584zM461 276h266q213 0 338 133.5t125 329.5q0 201 -121 330t-340 129h-268v-922z" />
<glyph unicode="E" horiz-adv-x="1288" d="M145 0v1475h1045v-277h-729v-309h713v-277h-713v-336h729v-276h-1045z" />
<glyph unicode="F" horiz-adv-x="1261" d="M145 0v1475h1045v-277h-729v-309h713v-277h-713v-612h-316z" />
<glyph unicode="G" horiz-adv-x="1591" d="M76 737q0 342 226 552t560 210q401 0 608 -330l-258 -141q-55 84 -147 138.5t-203 54.5q-201 0 -333 -137.5t-132 -347.5t132.5 -347t332.5 -137q90 0 177 33.5t135 79.5v178h-390v274h705v-567q-248 -276 -627 -277q-334 0 -560 211t-226 553z" />
<glyph unicode="H" horiz-adv-x="1615" d="M145 0v1475h316v-580h696v580h316v-1475h-316v621h-696v-621h-316z" />
<glyph unicode="I" horiz-adv-x="604" d="M145 0v1475h316v-1475h-316z" />
<glyph unicode="J" horiz-adv-x="1073" d="M12 119l138 239q111 -106 235 -106q104 0 166.5 65.5t62.5 171.5v986h318v-990q0 -254 -143.5 -383t-376.5 -129q-250 1 -400 146z" />
<glyph unicode="K" horiz-adv-x="1404" d="M145 0v1475h316v-656l522 656h387l-588 -693l627 -782h-387l-447 592l-114 -139v-453h-316z" />
<glyph unicode="L" horiz-adv-x="1138" d="M133 0v1475h316v-1199h624v-276h-940z" />
<glyph unicode="M" horiz-adv-x="1890" d="M145 0v1475h441l358 -922l359 922h442v-1475h-315v1063l-416 -1063h-137l-416 1063v-1063h-316z" />
<glyph unicode="N" horiz-adv-x="1611" d="M145 0v1475h324l684 -926v926h313v-1475h-303l-702 963v-963h-316z" />
<glyph unicode="O" horiz-adv-x="1691" d="M76 737q0 334 217 548t555 214q334 0 551 -215t217 -546.5t-217 -548t-551 -216.5q-338 0 -555 215t-217 549zM397 736q0 -210 124 -347t326 -137t324.5 137t122.5 347t-122.5 347.5t-323.5 137.5q-205 0 -328 -137.5t-123 -347.5z" />
<glyph unicode="P" horiz-adv-x="1382" d="M145 0v1475h691q233 0 364 -135.5t131 -340.5q0 -201 -132 -337t-363 -136h-375v-526h-316zM461 803h332q94 0 156.5 54t62.5 142q0 90 -62.5 144.5t-156.5 54.5h-332v-395z" />
<glyph unicode="Q" horiz-adv-x="1691" d="M76 737q0 334 217 548t555 214q334 0 551 -215t217 -547q0 -307 -191 -522l107 -127l-217 -178l-121 137q-160 -74 -346 -74q-338 0 -555 215t-217 549zM397 736q0 -210 124 -347t327 -137q80 0 151 24l-161 191l219 178l162 -190q76 121 75 282q0 209 -122.5 346.5 t-323.5 137.5q-205 0 -328 -137.5t-123 -347.5z" />
<glyph unicode="R" horiz-adv-x="1421" d="M145 0v1475h691q227 0 362 -132.5t135 -343.5q0 -180 -96 -293.5t-229 -144.5l335 -561h-364l-289 524h-229v-524h-316zM461 801h332q94 0 156.5 54t62.5 146q0 88 -62.5 142.5t-156.5 54.5h-332v-397z" />
<glyph unicode="S" horiz-adv-x="1327" d="M45 209l172 244q193 -201 469 -201q123 0 189.5 48t66.5 116q0 59 -62.5 98t-156.5 56.5t-204.5 50t-205 74.5t-158 132.5t-63.5 221.5q0 190 152.5 319t408.5 129q350 0 574 -205l-174 -235q-174 162 -428 162q-98 0 -153.5 -40t-55.5 -106q0 -53 63.5 -89t156.5 -54.5 t202.5 -51t204 -76.5t158 -134t63.5 -222q0 -213 -151.5 -343t-440.5 -130q-394 0 -627 236z" />
<glyph unicode="T" horiz-adv-x="1286" d="M55 1198v277h1178v-277h-430v-1198h-316v1198h-432z" />
<glyph unicode="U" horiz-adv-x="1622" d="M145 590v885h320v-875q0 -160 90 -254t256 -94t256 94t90 254v875h320v-885q0 -283 -169 -450t-496 -167t-497 167t-170 450z" />
<glyph unicode="V" horiz-adv-x="1511" d="M-8 1475h356l408 -1133l409 1133h357l-570 -1475h-393z" />
<glyph unicode="W" horiz-adv-x="2029" d="M2 1475h352l258 -1065l281 1065h246l278 -1065l260 1065h351l-420 -1475h-334l-258 1014l-258 -1014h-334z" />
<glyph unicode="X" horiz-adv-x="1476" d="M-6 0l534 756l-501 719h372l340 -504l334 504h377l-502 -717l537 -758h-377l-369 541l-372 -541h-373z" />
<glyph unicode="Y" horiz-adv-x="1425" d="M-8 1475h358l365 -590l364 590h357l-564 -871v-604h-315v604z" />
<glyph unicode="Z" horiz-adv-x="1308" d="M92 0v254l699 944h-699v277h1108v-252l-696 -947h713v-276h-1125z" />
<glyph unicode="[" horiz-adv-x="618" d="M104 -420v1919h478v-188h-275v-1542h275v-189h-478z" />
<glyph unicode="\" horiz-adv-x="727" d="M0 1520h203l524 -1565h-203z" />
<glyph unicode="]" horiz-adv-x="618" d="M39 -231h274v1542h-274v188h477v-1919h-477v189z" />
<glyph unicode="^" horiz-adv-x="974" d="M43 737l344 738h205l342 -738h-209l-238 545l-237 -545h-207z" />
<glyph unicode="_" horiz-adv-x="1247" d="M-6 -88h1259v-188h-1259v188z" />
<glyph unicode="`" horiz-adv-x="555" d="M0 1548h258l297 -319h-197z" />
<glyph unicode="&#x2cb;" horiz-adv-x="555" d="M0 1548h258l297 -319h-197z" />
<glyph unicode="a" horiz-adv-x="1200" d="M74 328q0 174 110.5 259t257.5 85q227 0 338 -129v133q0 82 -63.5 131t-169.5 49q-170 0 -307 -127l-111 199q186 168 467 168q205 0 336 -95.5t131 -310.5v-690h-283v113q-115 -139 -338 -140q-141 0 -254.5 94.5t-113.5 260.5zM354 322.5q0 -72.5 57.5 -115.5 t143.5 -43q158 0 225 92v133q-70 96 -225 96q-86 0 -143.5 -45t-57.5 -117.5z" />
<glyph unicode="b" horiz-adv-x="1294" d="M139 0v1475h281v-543q125 164 330 164q209 0 341 -151.5t132 -409.5q0 -260 -132.5 -411t-340.5 -151q-199 0 -330 164v-137h-281zM420 342q39 -49 107.5 -84t136.5 -35q121 0 195.5 86t74.5 226q0 137 -75 224t-195 87q-68 0 -136.5 -36t-107.5 -89v-379z" />
<glyph unicode="c" horiz-adv-x="1101" d="M72 534.5q0 245.5 159.5 403.5t405.5 158q283 0 422 -193l-182 -174q-78 117 -226 117q-129 0 -210 -86t-81 -225.5t81 -225.5t210 -86q143 0 226 117l182 -172q-141 -195 -422 -195q-246 0 -405.5 158t-159.5 403.5z" />
<glyph unicode="d" horiz-adv-x="1294" d="M72 535q0 258 132 409.5t341 151.5q205 0 329 -164v543h283v-1475h-283v137q-131 -164 -329 -164q-209 0 -341 151t-132 411zM360 535q0 -139 75 -225.5t198 -86.5q70 0 137.5 35t103.5 86v379q-37 53 -104.5 88t-136.5 35q-123 0 -198 -87t-75 -224z" />
<glyph unicode="e" horiz-adv-x="1222" d="M72 535q0 236 156.5 398.5t395 162.5t387 -163t148.5 -425v-66h-794q16 -104 97 -171.5t210 -67.5q74 0 154.5 27.5t129.5 76.5l125 -186q-162 -147 -440 -148q-248 0 -408.5 155t-160.5 407zM362 637h527q-8 90 -73.5 158.5t-190.5 68.5q-123 0 -189 -67.5t-74 -159.5z " />
<glyph unicode="f" horiz-adv-x="722" d="M27 823v246h176v43q0 180 97 282.5t261 102.5q190 0 279 -102l-105 -170q-47 43 -119 43q-61 0 -96 -40t-35 -116v-43h215v-246h-215v-823h-282v823h-176z" />
<glyph unicode="g" horiz-adv-x="1292" d="M72 551q0 256 131 400.5t340 144.5q203 0 331 -164v137h281v-997q0 -145 -52 -249t-140.5 -157t-182.5 -76.5t-202 -23.5q-276 0 -461 160l127 200q121 -129 334 -129q121 0 208.5 62.5t87.5 212.5v102q-131 -166 -331 -166q-209 0 -340 142.5t-131 400.5zM360 551 q0 -137 75 -216t198 -79q66 0 134.5 36t106.5 87v346q-39 51 -106.5 86t-134.5 35q-123 0 -198 -79t-75 -216z" />
<glyph unicode="h" horiz-adv-x="1282" d="M139 0v1475h283v-543q141 164 375 164q172 0 259 -89t87 -249v-758h-281v651q0 195 -196 195q-150 0 -244 -125v-721h-283z" />
<glyph unicode="i" d="M113 1350.5q0 68.5 49 118t117 49.5q72 0 119.5 -49.5t47.5 -118t-48 -117.5t-119 -49q-68 0 -117 49t-49 117.5zM139 0v1069h281v-1069h-281z" />
<glyph unicode="j" d="M-225 -356l75 209q66 -55 144 -56q66 0 105.5 44t39.5 130v1098h281v-1098q0 -188 -96.5 -296.5t-284.5 -108.5q-96 0 -149.5 17.5t-114.5 60.5zM113 1350.5q0 68.5 49 118t117 49.5q72 0 119.5 -49.5t47.5 -118t-48 -117.5t-119 -49q-68 0 -117 49t-49 117.5z" />
<glyph unicode="k" horiz-adv-x="1183" d="M139 0v1475h281v-883l405 477h344l-421 -485l436 -584h-353l-282 412l-129 -138v-274h-281z" />
<glyph unicode="l" d="M139 0v1475h281v-1475h-281z" />
<glyph unicode="m" horiz-adv-x="1886" d="M139 0v1069h281v-137q43 57 141 110.5t209 53.5q236 0 297 -193q49 76 150.5 134.5t216.5 58.5q150 0 231.5 -81t81.5 -243v-772h-283v674q0 172 -159 172q-68 0 -127.5 -38t-94.5 -87v-721h-282v674q0 172 -160 172q-131 0 -221 -125v-721h-281z" />
<glyph unicode="n" horiz-adv-x="1280" d="M139 0v1069h281v-137q57 68 155.5 116t219.5 48q172 0 260 -91.5t88 -250.5v-754h-283v645q0 201 -196 201q-145 0 -244 -125v-721h-281z" />
<glyph unicode="o" horiz-adv-x="1271" d="M72 535.5q0 236.5 153.5 398.5t409.5 162t410.5 -162t154.5 -398.5t-154.5 -399.5t-410.5 -163t-409.5 163t-153.5 399.5zM362 535q0 -131 73 -221.5t200 -90.5q129 0 201.5 90t72.5 222q0 131 -72.5 221t-201.5 90q-127 0 -200 -90t-73 -221z" />
<glyph unicode="p" horiz-adv-x="1288" d="M139 -408v1477h281v-135q127 162 330 162q211 0 342 -149.5t131 -411t-131 -412t-342 -150.5q-199 0 -330 164v-545h-281zM420 348q35 -51 105.5 -88t136.5 -37q121 0 196.5 86t75.5 226q0 137 -76 224t-196 87q-70 0 -138.5 -35t-103.5 -88v-375z" />
<glyph unicode="q" horiz-adv-x="1288" d="M68 535.5q0 261.5 131 411t342 149.5q203 0 327 -162v135h285v-1477h-285v545q-127 -164 -327 -164q-209 0 -341 150.5t-132 412zM358 535q0 -139 75 -225.5t196 -86.5q68 0 136.5 36t102.5 89v375q-35 53 -102.5 88t-136.5 35q-121 0 -196 -87t-75 -224z" />
<glyph unicode="r" horiz-adv-x="794" d="M139 0v1069h281v-145q61 74 153.5 123t188.5 49v-275q-33 6 -78 6q-72 0 -151.5 -35.5t-112.5 -84.5v-707h-281z" />
<glyph unicode="s" horiz-adv-x="1054" d="M47 139l121 203q63 -59 168.5 -103t200.5 -44q180 0 180 112q0 41 -46 65.5t-118 35t-153 34t-152.5 53t-117.5 97t-46 166.5q0 143 117.5 240.5t320.5 97.5q246 0 428 -148l-112 -198q-51 53 -137.5 88.5t-178.5 35.5q-76 0 -122 -28.5t-46 -75.5q0 -43 65.5 -65.5 t159 -41t186.5 -48t158.5 -105.5t65.5 -197q0 -150 -124 -245t-341 -95q-139 0 -266 44t-211 122z" />
<glyph unicode="t" horiz-adv-x="747" d="M20 823v246h177v291h280v-291h217v-246h-217v-481q0 -53 25.5 -86t72.5 -33q68 0 97 33l59 -213q-76 -70 -233 -70q-301 0 -301 295v555h-177z" />
<glyph unicode="u" horiz-adv-x="1280" d="M139 309v760h281v-649q0 -197 196 -197q150 0 244 121v725h281v-1069h-281v135q-147 -162 -375 -162q-174 0 -260 88t-86 248z" />
<glyph unicode="v" horiz-adv-x="1134" d="M-12 1069h299l278 -743l283 743h301l-430 -1069h-303z" />
<glyph unicode="w" horiz-adv-x="1701" d="M0 1069h293l199 -719l233 719h250l235 -719l199 719h295l-326 -1069h-301l-225 727l-225 -727h-301z" />
<glyph unicode="x" horiz-adv-x="1114" d="M0 0l381 549l-358 520h313l221 -328l219 328h314l-355 -520l379 -549h-313l-244 360l-246 -360h-311z" />
<glyph unicode="y" horiz-adv-x="1134" d="M-12 1069h299l278 -743l283 743h301l-504 -1243q-55 -141 -154.5 -198.5t-248.5 -61.5q-84 0 -138 18l39 250q41 -18 88 -18q113 0 150 78l39 94z" />
<glyph unicode="z" horiz-adv-x="1058" d="M92 0v211l483 612h-483v246h866v-203l-491 -620h500v-246h-875z" />
<glyph unicode="{" horiz-adv-x="636" d="M8 461v157q55 0 85 42t30 108v377q0 160 102.5 257t241.5 97h133v-188h-133q-59 0 -99 -45t-40 -117v-410q0 -156 -103 -198q102 -45 103 -201v-406q0 -74 40 -119.5t99 -45.5h133v-189h-133q-141 0 -242.5 96.5t-101.5 255.5v379q0 66 -30 108t-85 42z" />
<glyph unicode="|" horiz-adv-x="477" d="M145 -45v1565h189v-1565h-189z" />
<glyph unicode="}" horiz-adv-x="636" d="M37 -231h135q57 0 98 46t41 119v406q0 156 103 201q-102 43 -103 198v410q0 72 -41 117t-98 45h-135v188h135q139 0 241.5 -98t102.5 -256v-377q0 -66 29.5 -108t85.5 -42v-157q-55 0 -85 -42t-30 -108v-379q0 -158 -102.5 -255t-241.5 -97h-135v189z" />
<glyph unicode="~" horiz-adv-x="1126" d="M57 934q8 113 26.5 198t53.5 167.5t98.5 128t151.5 45.5q80 0 134 -40t79 -97.5t42 -116t42 -98.5t59 -40q106 0 138 394l190 -21q-10 -117 -27.5 -201t-51.5 -168t-97.5 -129t-151.5 -45q-80 0 -134 40t-78.5 97.5t-42 115t-42 97t-59.5 39.5q-106 0 -137 -389z" />
<glyph unicode="&#xa2;" horiz-adv-x="1101" d="M72 535q0 217 128 367.5t332 182.5v164h205v-162q209 -33 322 -184l-182 -174q-53 78 -140 105v-601q84 27 140 107l182 -172q-115 -158 -322 -186v-203h-205v203q-205 35 -332.5 184.5t-127.5 368.5zM360 535.5q0 -103.5 46.5 -180t125.5 -109.5v577 q-80 -33 -126 -108.5t-46 -179z" />
<glyph unicode="&#xa3;" horiz-adv-x="1216" d="M51 596v178h150q-100 139 -101 266q0 201 165 329t372 128q377 0 514 -268l-250 -146q-27 72 -89 115t-138 43q-98 0 -165 -57.5t-67 -149.5q0 -33 4.5 -60.5t21.5 -59t22.5 -44t32 -53.5t28.5 -43h317v-178h-247q0 -8 2 -22.5t2 -20.5q0 -76 -41 -142.5t-105 -103.5 q53 18 109 19q68 0 152.5 -37t136.5 -37q131 0 190 80l125 -250q-111 -111 -328 -111q-102 0 -221 48.5t-178 48.5q-104 0 -256 -84l-107 215q240 115 240 276q0 55 -27 121h-264z" />
<glyph unicode="&#xa5;" horiz-adv-x="1425" d="M-8 1475h358l365 -590l364 590h357l-451 -697h393v-174h-506v-178h506v-172h-506v-254h-315v254h-504v172h504v178h-504v174h389z" />
<glyph unicode="&#xa8;" horiz-adv-x="651" d="M-57 1351.5q0 63.5 44 106.5t106.5 43t106.5 -43t44 -106.5t-44 -107.5t-106.5 -44t-106.5 44t-44 107.5zM410 1351.5q0 61.5 44 105.5t105 44q66 0 109 -43t43 -106.5t-43 -107.5t-109 -44q-61 0 -105 45t-44 106.5z" />
<glyph unicode="&#xa9;" horiz-adv-x="1720" d="M98 739q0 315 223.5 538.5t540 223.5t539.5 -223t223 -539.5t-223 -540t-539.5 -223.5t-540 224.5t-223.5 539.5zM176 739.5q0 -280.5 202 -482.5t482.5 -202t482 202t201.5 482q0 283 -201.5 482.5t-482 199.5t-482.5 -200.5t-202 -481zM412 741q0 199 134 332t326 133 q203 0 326 -147l-68 -68q-92 125 -258 125q-150 0 -254 -105.5t-104 -269.5q0 -162 104.5 -271.5t253.5 -109.5q162 0 261 132l67 -70q-127 -150 -328 -150q-193 0 -326.5 134t-133.5 335z" />
<glyph unicode="&#xab;" horiz-adv-x="1165" d="M66 537l354 393h262l-354 -393l354 -398h-262zM487 537l353 393h260l-355 -393l355 -398h-260z" />
<glyph unicode="&#xad;" horiz-adv-x="663" d="M66 416v239h532v-239h-532z" />
<glyph unicode="&#xae;" horiz-adv-x="1091" d="M78 1028.5q0 194.5 137 331.5t332 137q197 0 333 -136t136 -333q0 -195 -137.5 -332t-332 -137t-331.5 137.5t-137 332zM147 1028q0 -164 117 -280.5t283 -116.5t281.5 116.5t115.5 280.5q0 168 -115.5 283.5t-281.5 115.5t-283 -115.5t-117 -283.5zM367 758v538h219 q72 0 124 -45t52 -118q0 -78 -50 -119t-87 -41l143 -215h-94l-139 213h-93v-213h-75zM442 1040h144q39 0 68.5 27t29.5 66q0 41 -29.5 68.5t-68.5 27.5h-144v-189z" />
<glyph unicode="&#xb4;" horiz-adv-x="555" d="M0 1229l297 319h258l-358 -319h-197z" />
<glyph unicode="&#xb8;" horiz-adv-x="487" d="M0 -362l55 112q84 -63 183 -63q45 0 78.5 18.5t33.5 52.5q0 57 -65 58q-39 0 -70 -31l-102 57l65 183h141l-55 -138q31 23 76 23q63 0 106 -43t43 -113q0 -86 -70.5 -136t-174.5 -50q-160 0 -244 70z" />
<glyph unicode="&#xbb;" horiz-adv-x="1165" d="M66 139l354 398l-354 393h262l354 -393l-354 -398h-262zM487 139l353 398l-353 393h258l355 -393l-355 -398h-258z" />
<glyph unicode="&#xc6;" horiz-adv-x="2140" d="M-20 0l899 1475h1169v-277h-727v-309h713v-277h-713v-336h727v-276h-1044v250h-517l-147 -250h-360zM635 526h369v635z" />
<glyph unicode="&#xe6;" horiz-adv-x="1923" d="M74 323.5q0 165.5 106.5 257t261.5 91.5q223 0 338 -127v131q0 82 -63.5 131t-169.5 49q-176 0 -307 -127l-111 199q186 168 467 168q272 0 362 -176q135 176 381 176q231 0 376 -163t145 -425v-66h-793q14 -102 95 -167.5t212 -65.5q70 0 152 28.5t131 75.5l125 -192 q-160 -147 -439 -148q-137 0 -252.5 52.5t-187.5 142.5q-166 -195 -438 -195q-158 0 -274.5 92.5t-116.5 258zM354 322.5q0 -72.5 57.5 -115.5t143.5 -43q176 0 248 123q-23 41 -23 100q-72 98 -225 98q-86 0 -143.5 -45t-57.5 -117.5zM1063 637h528q-8 90 -72.5 158.5 t-193.5 68.5q-119 0 -185.5 -68.5t-76.5 -158.5z" />
<glyph unicode="&#x131;" d="M139 0v1069h281v-1069h-281z" />
<glyph unicode="&#x2c6;" horiz-adv-x="663" d="M0 1229l203 319h252l209 -319h-172l-162 198l-158 -198h-172z" />
<glyph unicode="&#x2d8;" horiz-adv-x="776" d="M0 1425l127 103q96 -137 262 -137q164 0 264 137l123 -103q-143 -197 -387 -196q-242 -1 -389 196z" />
<glyph unicode="&#x2da;" horiz-adv-x="460" d="M0 1445q0 95 68.5 163.5t164 68.5t163 -67.5t67.5 -165.5q0 -94 -67.5 -163t-163 -69t-164 69t-68.5 164zM129 1445q0 -42 30.5 -74t72.5 -32t72 31t30 75t-30 73.5t-72 29.5t-72.5 -30.5t-30.5 -72.5z" />
<glyph unicode="&#x2dc;" horiz-adv-x="722" d="M0 1239q0 141 61.5 219t178.5 78q63 0 108 -38t80 -75t68 -37q80 0 79 136h148q0 -141 -60.5 -219t-175.5 -78q-66 0 -111.5 37.5t-80.5 75.5t-68 38q-80 0 -80 -137h-147z" />
<glyph unicode="&#x2dd;" horiz-adv-x="747" d="M0 1229l193 319h225l-254 -319h-164zM330 1229l192 319h226l-254 -319h-164z" />
<glyph unicode="&#x3c0;" horiz-adv-x="1372" d="M55 858v248h1264v-248h-156v-858h-282v858h-385v-858h-285v858h-156z" />
<glyph unicode="&#x405;" horiz-adv-x="1327" d="M45 209l172 244q193 -201 469 -201q123 0 189.5 48t66.5 116q0 59 -62.5 98t-156.5 56.5t-204.5 50t-205 74.5t-158 132.5t-63.5 221.5q0 190 152.5 319t408.5 129q350 0 574 -205l-174 -235q-174 162 -428 162q-98 0 -153.5 -40t-55.5 -106q0 -53 63.5 -89t156.5 -54.5 t202.5 -51t204 -76.5t158 -134t63.5 -222q0 -213 -151.5 -343t-440.5 -130q-394 0 -627 236z" />
<glyph unicode="&#x406;" horiz-adv-x="604" d="M145 0v1475h316v-1475h-316z" />
<glyph unicode="&#x407;" horiz-adv-x="604" d="M-80 1783.5q0 63.5 44 106.5t106.5 43t106.5 -43t44 -106.5t-44 -107.5t-106.5 -44t-106.5 44t-44 107.5zM387 1783.5q0 61.5 44 105.5t105 44q66 0 109 -43t43 -106.5t-43 -107.5t-109 -44q-61 0 -105 45t-44 106.5zM145 0v1475h316v-1475h-316z" />
<glyph unicode="&#x408;" horiz-adv-x="1073" d="M12 119l138 239q111 -106 235 -106q104 0 166.5 65.5t62.5 171.5v986h318v-990q0 -254 -143.5 -383t-376.5 -129q-250 1 -400 146z" />
<glyph unicode="&#x410;" horiz-adv-x="1511" d="M-8 0l567 1475h393l570 -1475h-357l-92 250h-633l-92 -250h-356zM526 526h461l-231 635z" />
<glyph unicode="&#x412;" horiz-adv-x="1466" d="M145 0v1475h777q203 0 314.5 -110t111.5 -265q0 -133 -74 -225.5t-180 -112.5q119 -18 200.5 -121.5t81.5 -241.5q0 -174 -111.5 -286.5t-318.5 -112.5h-801zM461 276h405q90 0 139.5 44.5t49.5 123.5q0 74 -49.5 121t-139.5 47h-405v-336zM461 889h393q80 0 126 42 t46 113q0 68 -46 111t-126 43h-393v-309z" />
<glyph unicode="&#x415;" horiz-adv-x="1288" d="M145 0v1475h1045v-277h-729v-309h713v-277h-713v-336h729v-276h-1045z" />
<glyph unicode="&#x41a;" horiz-adv-x="1404" d="M145 0v1475h316v-656l522 656h387l-588 -693l627 -782h-387l-447 592l-114 -139v-453h-316z" />
<glyph unicode="&#x41c;" horiz-adv-x="1890" d="M145 0v1475h441l358 -922l359 922h442v-1475h-315v1063l-416 -1063h-137l-416 1063v-1063h-316z" />
<glyph unicode="&#x41d;" horiz-adv-x="1615" d="M145 0v1475h316v-580h696v580h316v-1475h-316v621h-696v-621h-316z" />
<glyph unicode="&#x41e;" horiz-adv-x="1691" d="M76 737q0 334 217 548t555 214q334 0 551 -215t217 -546.5t-217 -548t-551 -216.5q-338 0 -555 215t-217 549zM397 736q0 -210 124 -347t326 -137t324.5 137t122.5 347t-122.5 347.5t-323.5 137.5q-205 0 -328 -137.5t-123 -347.5z" />
<glyph unicode="&#x420;" horiz-adv-x="1382" d="M145 0v1475h691q233 0 364 -135.5t131 -340.5q0 -201 -132 -337t-363 -136h-375v-526h-316zM461 803h332q94 0 156.5 54t62.5 142q0 90 -62.5 144.5t-156.5 54.5h-332v-395z" />
<glyph unicode="&#x421;" horiz-adv-x="1517" d="M76 737q0 338 224 550t562 212q414 0 615 -360l-269 -133q-49 94 -143 154.5t-203 60.5q-201 0 -333 -137.5t-132 -347.5t132.5 -347t332.5 -137q109 0 203 61.5t143 153.5l269 -131q-205 -362 -615 -363q-338 0 -562 213t-224 551z" />
<glyph unicode="&#x422;" horiz-adv-x="1286" d="M55 1198v277h1178v-277h-430v-1198h-316v1198h-432z" />
<glyph unicode="&#x425;" horiz-adv-x="1476" d="M-6 0l534 756l-501 719h372l340 -504l334 504h377l-502 -717l537 -758h-377l-369 541l-372 -541h-373z" />
<glyph unicode="&#x430;" horiz-adv-x="1200" d="M74 328q0 174 110.5 259t257.5 85q227 0 338 -129v133q0 82 -63.5 131t-169.5 49q-170 0 -307 -127l-111 199q186 168 467 168q205 0 336 -95.5t131 -310.5v-690h-283v113q-115 -139 -338 -140q-141 0 -254.5 94.5t-113.5 260.5zM354 322.5q0 -72.5 57.5 -115.5 t143.5 -43q158 0 225 92v133q-70 96 -225 96q-86 0 -143.5 -45t-57.5 -117.5z" />
<glyph unicode="&#x435;" horiz-adv-x="1222" d="M72 535q0 236 156.5 398.5t395 162.5t387 -163t148.5 -425v-66h-794q16 -104 97 -171.5t210 -67.5q74 0 154.5 27.5t129.5 76.5l125 -186q-162 -147 -440 -148q-248 0 -408.5 155t-160.5 407zM362 637h527q-8 90 -73.5 158.5t-190.5 68.5q-123 0 -189 -67.5t-74 -159.5z " />
<glyph unicode="&#x43e;" horiz-adv-x="1271" d="M72 535.5q0 236.5 153.5 398.5t409.5 162t410.5 -162t154.5 -398.5t-154.5 -399.5t-410.5 -163t-409.5 163t-153.5 399.5zM362 535q0 -131 73 -221.5t200 -90.5q129 0 201.5 90t72.5 222q0 131 -72.5 221t-201.5 90q-127 0 -200 -90t-73 -221z" />
<glyph unicode="&#x43f;" horiz-adv-x="1372" d="M55 858v248h1264v-248h-156v-858h-282v858h-385v-858h-285v858h-156z" />
<glyph unicode="&#x440;" horiz-adv-x="1288" d="M139 -408v1477h281v-135q127 162 330 162q211 0 342 -149.5t131 -411t-131 -412t-342 -150.5q-199 0 -330 164v-545h-281zM420 348q35 -51 105.5 -88t136.5 -37q121 0 196.5 86t75.5 226q0 137 -76 224t-196 87q-70 0 -138.5 -35t-103.5 -88v-375z" />
<glyph unicode="&#x441;" horiz-adv-x="1101" d="M72 534.5q0 245.5 159.5 403.5t405.5 158q283 0 422 -193l-182 -174q-78 117 -226 117q-129 0 -210 -86t-81 -225.5t81 -225.5t210 -86q143 0 226 117l182 -172q-141 -195 -422 -195q-246 0 -405.5 158t-159.5 403.5z" />
<glyph unicode="&#x443;" horiz-adv-x="1134" d="M-12 1069h299l278 -743l283 743h301l-504 -1243q-55 -141 -154.5 -198.5t-248.5 -61.5q-84 0 -138 18l39 250q41 -18 88 -18q113 0 150 78l39 94z" />
<glyph unicode="&#x445;" horiz-adv-x="1114" d="M0 0l381 549l-358 520h313l221 -328l219 328h314l-355 -520l379 -549h-313l-244 360l-246 -360h-311z" />
<glyph unicode="&#x450;" horiz-adv-x="1222" d="M168 1546h258l297 -319h-197zM72 535q0 236 156.5 398.5t395 162.5t387 -163t148.5 -425v-66h-794q16 -104 97 -171.5t210 -67.5q74 0 154.5 27.5t129.5 76.5l125 -186q-162 -147 -440 -148q-248 0 -408.5 155t-160.5 407zM362 637h527q-8 90 -73.5 158.5t-190.5 68.5 q-123 0 -189 -67.5t-74 -159.5z" />
<glyph unicode="&#x451;" horiz-adv-x="1222" d="M240 1378.5q0 63.5 44 106.5t106.5 43t106.5 -43t44 -106.5t-44 -107.5t-106.5 -44t-106.5 44t-44 107.5zM707 1378.5q0 61.5 44 105.5t105 44q66 0 109 -43t43 -106.5t-43 -107.5t-109 -44q-61 0 -105 45t-44 106.5zM72 535q0 236 156.5 398.5t395 162.5t387 -163 t148.5 -425v-66h-794q16 -104 97 -171.5t210 -67.5q74 0 154.5 27.5t129.5 76.5l125 -186q-162 -147 -440 -148q-248 0 -408.5 155t-160.5 407zM362 637h527q-8 90 -73.5 158.5t-190.5 68.5q-123 0 -189 -67.5t-74 -159.5z" />
<glyph unicode="&#x455;" horiz-adv-x="1054" d="M47 139l121 203q63 -59 168.5 -103t200.5 -44q180 0 180 112q0 41 -46 65.5t-118 35t-153 34t-152.5 53t-117.5 97t-46 166.5q0 143 117.5 240.5t320.5 97.5q246 0 428 -148l-112 -198q-51 53 -137.5 88.5t-178.5 35.5q-76 0 -122 -28.5t-46 -75.5q0 -43 65.5 -65.5 t159 -41t186.5 -48t158.5 -105.5t65.5 -197q0 -150 -124 -245t-341 -95q-139 0 -266 44t-211 122z" />
<glyph unicode="&#x456;" d="M113 1350.5q0 68.5 49 118t117 49.5q72 0 119.5 -49.5t47.5 -118t-48 -117.5t-119 -49q-68 0 -117 49t-49 117.5zM139 0v1069h281v-1069h-281z" />
<glyph unicode="&#x457;" d="M-104 1378.5q0 63.5 44 106.5t106.5 43t106.5 -43t44 -106.5t-44 -107.5t-106.5 -44t-106.5 44t-44 107.5zM363 1378.5q0 61.5 44 105.5t105 44q66 0 109 -43t43 -106.5t-43 -107.5t-109 -44q-61 0 -105 45t-44 106.5zM139 0v1069h281v-1069h-281z" />
<glyph unicode="&#x458;" d="M-225 -356l75 209q66 -55 144 -56q66 0 105.5 44t39.5 130v1098h281v-1098q0 -188 -96.5 -296.5t-284.5 -108.5q-96 0 -149.5 17.5t-114.5 60.5zM113 1350.5q0 68.5 49 118t117 49.5q72 0 119.5 -49.5t47.5 -118t-48 -117.5t-119 -49q-68 0 -117 49t-49 117.5z" />
<glyph unicode="&#x45e;" horiz-adv-x="1134" d="M178 1423l127 103q96 -137 262 -137q164 0 264 137l123 -103q-143 -197 -387 -196q-242 -1 -389 196zM-12 1069h299l278 -743l283 743h301l-504 -1243q-55 -141 -154.5 -198.5t-248.5 -61.5q-84 0 -138 18l39 250q41 -18 88 -18q113 0 150 78l39 94z" />
<glyph unicode="&#x4ae;" horiz-adv-x="1425" d="M-8 1475h358l365 -590l364 590h357l-564 -871v-604h-315v604z" />
<glyph unicode="&#x4c0;" horiz-adv-x="604" d="M145 0v1475h316v-1475h-316z" />
<glyph unicode="&#x4d0;" horiz-adv-x="1511" d="M367 1828l127 103q96 -137 262 -137q164 0 264 137l123 -103q-143 -197 -387 -196q-242 -1 -389 196zM-8 0l567 1475h393l570 -1475h-357l-92 250h-633l-92 -250h-356zM526 526h461l-231 635z" />
<glyph unicode="&#x4d1;" horiz-adv-x="1200" d="M209 1423l127 103q96 -137 262 -137q164 0 264 137l123 -103q-143 -197 -387 -196q-242 -1 -389 196zM74 328q0 174 110.5 259t257.5 85q227 0 338 -129v133q0 82 -63.5 131t-169.5 49q-170 0 -307 -127l-111 199q186 168 467 168q205 0 336 -95.5t131 -310.5v-690h-283 v113q-115 -139 -338 -140q-141 0 -254.5 94.5t-113.5 260.5zM354 322.5q0 -72.5 57.5 -115.5t143.5 -43q158 0 225 92v133q-70 96 -225 96q-86 0 -143.5 -45t-57.5 -117.5z" />
<glyph unicode="&#x4d2;" horiz-adv-x="1511" d="M373 1783.5q0 63.5 44 106.5t106.5 43t106.5 -43t44 -106.5t-44 -107.5t-106.5 -44t-106.5 44t-44 107.5zM840 1783.5q0 61.5 44 105.5t105 44q66 0 109 -43t43 -106.5t-43 -107.5t-109 -44q-61 0 -105 45t-44 106.5zM-8 0l567 1475h393l570 -1475h-357l-92 250h-633 l-92 -250h-356zM526 526h461l-231 635z" />
<glyph unicode="&#x4d3;" horiz-adv-x="1200" d="M213 1378.5q0 63.5 44 106.5t106.5 43t106.5 -43t44 -106.5t-44 -107.5t-106.5 -44t-106.5 44t-44 107.5zM680 1378.5q0 61.5 44 105.5t105 44q66 0 109 -43t43 -106.5t-43 -107.5t-109 -44q-61 0 -105 45t-44 106.5zM74 328q0 174 110.5 259t257.5 85q227 0 338 -129 v133q0 82 -63.5 131t-169.5 49q-170 0 -307 -127l-111 199q186 168 467 168q205 0 336 -95.5t131 -310.5v-690h-283v113q-115 -139 -338 -140q-141 0 -254.5 94.5t-113.5 260.5zM354 322.5q0 -72.5 57.5 -115.5t143.5 -43q158 0 225 92v133q-70 96 -225 96q-86 0 -143.5 -45 t-57.5 -117.5z" />
<glyph unicode="&#x4d4;" horiz-adv-x="2140" d="M-20 0l899 1475h1169v-277h-727v-309h713v-277h-713v-336h727v-276h-1044v250h-517l-147 -250h-360zM635 526h369v635z" />
<glyph unicode="&#x4d5;" horiz-adv-x="1923" d="M74 323.5q0 165.5 106.5 257t261.5 91.5q223 0 338 -127v131q0 82 -63.5 131t-169.5 49q-176 0 -307 -127l-111 199q186 168 467 168q272 0 362 -176q135 176 381 176q231 0 376 -163t145 -425v-66h-793q14 -102 95 -167.5t212 -65.5q70 0 152 28.5t131 75.5l125 -192 q-160 -147 -439 -148q-137 0 -252.5 52.5t-187.5 142.5q-166 -195 -438 -195q-158 0 -274.5 92.5t-116.5 258zM354 322.5q0 -72.5 57.5 -115.5t143.5 -43q176 0 248 123q-23 41 -23 100q-72 98 -225 98q-86 0 -143.5 -45t-57.5 -117.5zM1063 637h528q-8 90 -72.5 158.5 t-193.5 68.5q-119 0 -185.5 -68.5t-76.5 -158.5z" />
<glyph unicode="&#x4d6;" horiz-adv-x="1288" d="M279 1828l127 103q96 -137 262 -137q164 0 264 137l123 -103q-143 -197 -387 -196q-242 -1 -389 196zM145 0v1475h1045v-277h-729v-309h713v-277h-713v-336h729v-276h-1045z" />
<glyph unicode="&#x4d7;" horiz-adv-x="1222" d="M233 1423l127 103q96 -137 262 -137q164 0 264 137l123 -103q-143 -197 -387 -196q-242 -1 -389 196zM72 535q0 236 156.5 398.5t395 162.5t387 -163t148.5 -425v-66h-794q16 -104 97 -171.5t210 -67.5q74 0 154.5 27.5t129.5 76.5l125 -186q-162 -147 -440 -148 q-248 0 -408.5 155t-160.5 407zM362 637h527q-8 90 -73.5 158.5t-190.5 68.5q-123 0 -189 -67.5t-74 -159.5z" />
<glyph unicode="&#x4e6;" horiz-adv-x="1691" d="M465 1783.5q0 63.5 44 106.5t106.5 43t106.5 -43t44 -106.5t-44 -107.5t-106.5 -44t-106.5 44t-44 107.5zM932 1783.5q0 61.5 44 105.5t105 44q66 0 109 -43t43 -106.5t-43 -107.5t-109 -44q-61 0 -105 45t-44 106.5zM76 737q0 334 217 548t555 214q334 0 551 -215 t217 -546.5t-217 -548t-551 -216.5q-338 0 -555 215t-217 549zM397 736q0 -210 124 -347t326 -137t324.5 137t122.5 347t-122.5 347.5t-323.5 137.5q-205 0 -328 -137.5t-123 -347.5z" />
<glyph unicode="&#x4e7;" horiz-adv-x="1271" d="M252 1378.5q0 63.5 44 106.5t106.5 43t106.5 -43t44 -106.5t-44 -107.5t-106.5 -44t-106.5 44t-44 107.5zM719 1378.5q0 61.5 44 105.5t105 44q66 0 109 -43t43 -106.5t-43 -107.5t-109 -44q-61 0 -105 45t-44 106.5zM72 535.5q0 236.5 153.5 398.5t409.5 162t410.5 -162 t154.5 -398.5t-154.5 -399.5t-410.5 -163t-409.5 163t-153.5 399.5zM362 535q0 -131 73 -221.5t200 -90.5q129 0 201.5 90t72.5 222q0 131 -72.5 221t-201.5 90q-127 0 -200 -90t-73 -221z" />
<glyph unicode="&#x4f1;" horiz-adv-x="1134" d="M185 1378.5q0 63.5 44 106.5t106.5 43t106.5 -43t44 -106.5t-44 -107.5t-106.5 -44t-106.5 44t-44 107.5zM652 1378.5q0 61.5 44 105.5t105 44q66 0 109 -43t43 -106.5t-43 -107.5t-109 -44q-61 0 -105 45t-44 106.5zM-12 1069h299l278 -743l283 743h301l-504 -1243 q-55 -141 -154.5 -198.5t-248.5 -61.5q-84 0 -138 18l39 250q41 -18 88 -18q113 0 150 78l39 94z" />
<glyph unicode="&#x4f3;" horiz-adv-x="1134" d="M322 1227l193 319h225l-254 -319h-164zM652 1227l192 319h226l-254 -319h-164zM-12 1069h299l278 -743l283 743h301l-504 -1243q-55 -141 -154.5 -198.5t-248.5 -61.5q-84 0 -138 18l39 250q41 -18 88 -18q113 0 150 78l39 94z" />
<glyph unicode="&#x2000;" horiz-adv-x="966" />
<glyph unicode="&#x2001;" horiz-adv-x="1933" />
<glyph unicode="&#x2002;" horiz-adv-x="966" />
<glyph unicode="&#x2003;" horiz-adv-x="1933" />
<glyph unicode="&#x2004;" horiz-adv-x="643" />
<glyph unicode="&#x2005;" horiz-adv-x="483" />
<glyph unicode="&#x2006;" horiz-adv-x="321" />
<glyph unicode="&#x2007;" horiz-adv-x="321" />
<glyph unicode="&#x2008;" horiz-adv-x="241" />
<glyph unicode="&#x2009;" horiz-adv-x="385" />
<glyph unicode="&#x200a;" horiz-adv-x="106" />
<glyph unicode="&#x2010;" horiz-adv-x="663" d="M66 416v239h532v-239h-532z" />
<glyph unicode="&#x2011;" horiz-adv-x="663" d="M66 416v239h532v-239h-532z" />
<glyph unicode="&#x2012;" horiz-adv-x="663" d="M66 416v239h532v-239h-532z" />
<glyph unicode="&#x2013;" horiz-adv-x="1310" d="M66 416v239h1179v-239h-1179z" />
<glyph unicode="&#x2014;" horiz-adv-x="1841" d="M66 416v239h1710v-239h-1710z" />
<glyph unicode="&#x2018;" horiz-adv-x="563" d="M86 1087q0 123 61.5 230.5t165.5 181.5l123 -98q-55 -29 -106 -91.5t-66 -119.5q10 6 43 6q63 0 107.5 -44t44.5 -114.5t-52.5 -123t-123.5 -52.5q-82 0 -139.5 61.5t-57.5 163.5z" />
<glyph unicode="&#x2019;" horiz-adv-x="563" d="M104 1322q0 71 52.5 123t122.5 52q82 0 139 -60.5t57 -164.5q0 -121 -60.5 -228.5t-166.5 -183.5l-121 101q55 29 105.5 90t64.5 118q-10 -6 -43 -6q-63 0 -106.5 44t-43.5 115z" />
<glyph unicode="&#x201a;" horiz-adv-x="563" d="M104 158q0 72 52.5 124t122.5 52q82 0 139 -60.5t57 -164.5q0 -121 -60.5 -228.5t-166.5 -183.5l-121 100q55 29 105.5 89.5t64.5 117.5q-20 -6 -43 -6q-63 0 -106.5 45t-43.5 115z" />
<glyph unicode="&#x201c;" horiz-adv-x="1013" d="M88 1087q0 123 61.5 230.5t165.5 181.5l123 -98q-55 -29 -106 -91.5t-66 -119.5q12 6 43 6q66 0 109 -44t43 -114.5t-52.5 -123t-123.5 -52.5q-82 0 -139.5 61.5t-57.5 163.5zM541 1087q0 123 60.5 230.5t166.5 181.5l121 -98q-55 -29 -107.5 -91.5t-64.5 -119.5 q8 6 45 6q63 0 105 -44t42 -114.5t-51 -123t-121 -52.5q-82 0 -139 61.5t-57 163.5z" />
<glyph unicode="&#x201d;" horiz-adv-x="1013" d="M104 1322q0 71 52.5 123t122.5 52q82 0 139 -60.5t57 -164.5q0 -121 -60.5 -228.5t-166.5 -183.5l-121 101q55 29 105.5 90t64.5 118q-10 -6 -43 -6q-63 0 -106.5 44t-43.5 115zM555 1322q0 71 51 123t121 52q82 0 139.5 -60.5t57.5 -164.5q0 -121 -60.5 -228.5 t-167.5 -183.5l-121 101q55 29 107.5 90t65.5 118q-8 -6 -46 -6q-63 0 -105 44t-42 115z" />
<glyph unicode="&#x201e;" horiz-adv-x="1013" d="M104 158q0 72 52.5 124t122.5 52q82 0 139 -60.5t57 -164.5q0 -121 -60.5 -228.5t-166.5 -183.5l-121 100q55 29 105.5 89.5t64.5 117.5q-20 -6 -43 -6q-63 0 -106.5 45t-43.5 115zM555 158q0 72 51 124t121 52q82 0 139.5 -60.5t57.5 -164.5q0 -121 -60.5 -228.5 t-167.5 -183.5l-121 100q55 29 107.5 90.5t65.5 116.5q-20 -6 -46 -6q-63 0 -105 45t-42 115z" />
<glyph unicode="&#x2022;" horiz-adv-x="790" d="M135 535q0 111 76 187.5t186.5 76.5t187.5 -77t77 -187q0 -109 -78 -185t-186.5 -76t-185.5 76t-77 185z" />
<glyph unicode="&#x2026;" horiz-adv-x="1697" d="M106 156q0 72 52.5 125t125 53t126 -53.5t53.5 -124.5q0 -72 -53.5 -125.5t-126 -53.5t-125 53.5t-52.5 125.5zM672 156q0 72 52 125t125 53t126 -53.5t53 -124.5q0 -72 -53 -125.5t-126 -53.5t-125 53.5t-52 125.5zM1239 156q0 72 52 125t125 53t126 -53.5t53 -124.5 q0 -72 -53 -125.5t-126 -53.5t-125 53.5t-52 125.5z" />
<glyph unicode="&#x202f;" horiz-adv-x="385" />
<glyph unicode="&#x2039;" horiz-adv-x="747" d="M66 537l354 393h262l-354 -393l354 -398h-262z" />
<glyph unicode="&#x203a;" horiz-adv-x="747" d="M66 139l354 398l-354 393h262l354 -393l-354 -398h-262z" />
<glyph unicode="&#x205f;" horiz-adv-x="483" />
<glyph unicode="&#x20ac;" horiz-adv-x="1566" d="M47 498v174h82q-2 20 -2 65t2 70h-82v176h115q76 236 278.5 376t472.5 140q414 0 615 -360l-268 -133q-49 94 -143.5 154.5t-203.5 60.5q-135 0 -241.5 -63.5t-165.5 -174.5h541v-176h-594q-4 -25 -4 -70t2 -65h596v-174h-543q57 -115 164.5 -180.5t244.5 -65.5 q109 0 203 61.5t144 153.5l268 -131q-205 -362 -615 -363q-272 0 -477 141.5t-276 383.5h-113z" />
<glyph unicode="&#x2122;" horiz-adv-x="1003" d="M37 1417v58h338v-58h-137v-428h-64v428h-137zM453 989v486h96l141 -353l141 353h97v-486h-64v402l-166 -402h-16l-166 402v-402h-63z" />
<glyph unicode="&#xe000;" horiz-adv-x="1070" d="M0 1070h1070v-1070h-1070v1070z" />
</font>
</defs>
</svg>
