<?xml version="1.0" standalone="no"?>
<!DOCTYPE svg PUBLIC "-//W3C//DTD SVG 1.1//EN" "http://www.w3.org/Graphics/SVG/1.1/DTD/svg11.dtd" >
<svg xmlns="http://www.w3.org/2000/svg" xmlns:xlink="http://www.w3.org/1999/xlink" version="1.1">
<metadata>
Created by FontForge 20161003 at Mon Aug 12 08:31:50 2019
 By www-data
Copyright (c) 2018 by TypeType. Designers Ivan Gladkikh, Pavel Emelyanov. Technical designers Marina Khodak, Vika Usmanova, Nadyr Rakhimov. All rights reserved.
</metadata>
<defs>
<font id="TTCommonsMedium" horiz-adv-x="1024" >
  <font-face 
    font-family="TTCommonsMedium"
    font-weight="500"
    font-stretch="normal"
    units-per-em="2048"
    panose-1="2 0 8 6 3 0 0 2 0 4"
    ascent="1434"
    descent="-614"
    x-height="922"
    cap-height="1290"
    bbox="-369 -532 2945 1751"
    underline-thickness="0"
    underline-position="0"
    unicode-range="U+000D-FB06"
  />
<missing-glyph horiz-adv-x="0" 
 />
    <glyph glyph-name="uniFB00" unicode="ff" horiz-adv-x="1105" 
d="M1065 748h-205v-748h-184v748h-338v-748h-184v748h-113v174h113v20q0 74 21.5 132.5t60 99t91 63.5t113.5 23q23 0 41.5 -3.5t32.5 -7.5q16 -6 29 -10v-164q-8 2 -19 4q-10 2 -21 4t-22 2q-61 0 -102 -40.5t-41 -102.5v-20h338v61q0 74 21.5 132.5t60.5 99t91 63
t114 22.5q23 0 41 -3t32 -7q16 -6 29 -10v-164q-8 2 -18 4t-21.5 4t-21.5 2q-61 0 -102.5 -41t-41.5 -102v-61h205v-174z" />
    <glyph glyph-name="uniFB01" unicode="fi" horiz-adv-x="983" 
d="M860 0h-184v748h-338v-748h-184v748h-113v174h113v61q0 74 21.5 132.5t60 99t91 63t113.5 22.5q23 0 41.5 -3t32.5 -7q16 -6 29 -10v-164q-8 2 -19 4q-10 2 -21 4t-22 2q-61 0 -102 -41t-41 -102v-61h522v-922zM768 1065q-47 0 -80 32.5t-33 80.5q0 47 33 79.5t80 32.5
t80 -32.5t33 -79.5t-33 -80t-80 -33z" />
    <glyph glyph-name="uniFB02" unicode="fl" horiz-adv-x="1003" 
d="M543 748h-205v-748h-184v748h-113v174h113v20q0 80 27.5 147.5t77.5 116.5t120 77t153 28q31 0 57.5 -5.5t49.5 -11.5q25 -8 47 -14h184v-1280h-184v1096q-23 14 -47 24q-23 10 -49.5 18.5t-57.5 8.5q-86 0 -140 -56.5t-54 -148.5v-20h205v-174z" />
    <glyph glyph-name="uniFB03" unicode="ffi" horiz-adv-x="1505" 
d="M1382 0h-184v748h-338v-748h-184v748h-338v-748h-184v748h-113v174h113v20q0 74 21.5 132.5t60 99t91 63.5t113.5 23q23 0 41.5 -3.5t32.5 -7.5q16 -6 29 -10v-164q-8 2 -19 4q-10 2 -21 4t-22 2q-61 0 -102 -40.5t-41 -102.5v-20h338v61q0 74 21.5 132.5t60.5 99t91 63
t114 22.5q23 0 41 -3t32 -7q16 -6 29 -10v-164q-8 2 -18 4t-21.5 4t-21.5 2q-61 0 -102.5 -41t-41.5 -102v-61h522v-922zM1290 1065q-47 0 -79.5 32.5t-32.5 80.5q0 47 32.5 79.5t79.5 32.5t80 -32.5t33 -79.5t-33 -80t-80 -33z" />
    <glyph glyph-name="uniFB04" unicode="ffl" horiz-adv-x="1525" 
d="M1065 748h-205v-748h-184v748h-338v-748h-184v748h-113v174h113v20q0 74 21.5 132.5t60 99t91 63.5t113.5 23q23 0 41.5 -3.5t32.5 -7.5q16 -6 29 -10v-164q-8 2 -19 4q-10 2 -21 4t-22 2q-61 0 -102 -40.5t-41 -102.5v-20h338v20q0 80 27.5 147.5t77.5 116.5t120 77
t154 28q31 0 57.5 -5.5t48.5 -11.5q25 -8 47 -14h185v-1280h-185v1096q-23 14 -47 24q-23 10 -49.5 18.5t-56.5 8.5q-86 0 -140.5 -56.5t-54.5 -148.5v-20h205v-174z" />
    <glyph glyph-name="f_f_j.liga" unicode="ffj" horiz-adv-x="1505" 
d="M1198 748h-338v-748h-184v748h-338v-748h-184v748h-113v174h113v20q0 74 21.5 132.5t60 99t91 63.5t113.5 23q23 0 41.5 -3.5t32.5 -7.5q16 -6 29 -10v-164q-8 2 -19 4q-10 2 -21 4t-22 2q-61 0 -102 -40.5t-41 -102.5v-20h338v61q0 74 21.5 132.5t60.5 99t91 63
t114 22.5q23 0 41 -3t32 -7q16 -6 29 -10v-164q-8 2 -18 4t-21.5 4t-21.5 2q-61 0 -102.5 -41t-41.5 -102v-61h522v-942q0 -74 -21.5 -132.5t-60 -99.5t-91 -63.5t-113.5 -22.5q-43 0 -74 10q-16 4 -29 11v163q8 -4 19 -6q10 -2 20 -3t23 -1q61 0 102 41t41 103v768z
M1290 1065q-47 0 -79.5 32.5t-32.5 80.5q0 47 32.5 79.5t79.5 32.5t80 -32.5t33 -79.5t-33 -80t-80 -33z" />
    <glyph glyph-name="f_j.liga" unicode="fj" horiz-adv-x="983" 
d="M676 748h-338v-748h-184v748h-113v174h113v61q0 74 21.5 132.5t60 99t91 63t113.5 22.5q23 0 41.5 -3t32.5 -7q16 -6 29 -10v-164q-8 2 -19 4q-10 2 -21 4t-22 2q-61 0 -102 -41t-41 -102v-61h522v-942q0 -74 -21.5 -132.5t-60.5 -99.5t-91 -63.5t-114 -22.5
q-43 0 -73 10q-16 4 -29 11v163q8 -4 18 -6t20.5 -3t22.5 -1q61 0 102.5 41t41.5 103v768zM768 1065q-47 0 -80 32.5t-33 80.5q0 47 33 79.5t80 32.5t80 -32.5t33 -79.5t-33 -80t-80 -33z" />
    <glyph glyph-name="f_t.liga" unicode="ft" horiz-adv-x="1177" 
d="M881 307q0 -61 41 -102t102 -41q10 0 21.5 1t21.5 3t18 6v-164q-12 -6 -28 -10q-31 -10 -74 -10q-61 0 -113.5 22.5t-91.5 63.5t-60.5 99t-21.5 132v441h-358v-748h-184v748h-113v174h113v61q0 74 21.5 132.5t60 99t91 63t113.5 22.5q23 0 41.5 -3t32.5 -7q16 -6 29 -10
v-164q-8 2 -19 4q-10 2 -21 4t-22 2q-61 0 -102 -41t-41 -102v-61h266q53 0 88 34.5t35 87.5v123h154v-245h204v-174h-204v-441z" />
    <glyph glyph-name="f_h.liga" unicode="fh" horiz-adv-x="1607" 
d="M1126 932q76 0 143.5 -30t118 -82t79 -125.5t28.5 -162.5v-532h-184v532q0 45 -17.5 86t-47 72t-68.5 49.5t-82 18.5q-47 0 -88 -18.5t-72 -49.5t-48.5 -71.5t-17.5 -86.5v-532h-184v1096q-23 14 -47 24q-23 10 -49.5 18.5t-57.5 8.5q-86 0 -140 -56.5t-54 -148.5v-20
h205v-174h-205v-748h-184v748h-113v174h113v20q0 80 27.5 147.5t77.5 116.5t120 77t153 28q31 0 57.5 -5.5t49.5 -11.5q25 -8 47 -14h184v-451q29 29 66 52q33 18 81 34.5t109 16.5z" />
    <glyph glyph-name="f_k.liga" unicode="fk" horiz-adv-x="1433" 
d="M1229 0l-359 440v-440h-184v1096q-23 14 -47 24q-23 10 -49.5 18.5t-57.5 8.5q-86 0 -140 -56.5t-54 -148.5v-20h205v-174h-205v-748h-184v748h-113v174h113v20q0 80 27.5 147.5t77.5 116.5t120 77t153 28q31 0 57.5 -5.5t49.5 -11.5q25 -8 47 -14h184v-758l318 400h215
l-359 -430l410 -492h-225z" />
    <glyph glyph-name="f_b.liga" unicode="fb" horiz-adv-x="1638" 
d="M1126 -10q-70 0 -120 15t-82 36q-37 23 -64 51l-41 -92h-133v1096q-23 14 -47 24q-23 10 -49.5 18.5t-57.5 8.5q-86 0 -140 -56.5t-54 -148.5v-20h205v-174h-205v-748h-184v748h-113v174h113v20q0 80 27.5 147.5t77.5 116.5t120 77t153 28q31 0 57.5 -5.5t49.5 -11.5
q25 -8 47 -14h184v-451q27 29 64 52q33 18 80 34.5t112 16.5q92 0 172 -35t140.5 -97.5t94.5 -148.5t34 -190t-34 -190.5t-94.5 -149t-140.5 -97t-172 -34.5zM1116 758q-53 0 -101 -21.5t-85 -61.5t-58.5 -94.5t-21.5 -119.5q0 -66 21.5 -120t58.5 -94t85 -61.5t101 -21.5
t101.5 21.5t85 61.5t58 94t21.5 120t-21.5 120t-58 94t-85 61.5t-101.5 21.5z" />
    <glyph glyph-name="f_f_h.liga" unicode="ffh" horiz-adv-x="2129" 
d="M1649 932q76 0 143.5 -30t117.5 -82t78.5 -125.5t28.5 -162.5v-532h-184v532q0 45 -17.5 86t-47 72t-68.5 49.5t-82 18.5q-47 0 -88 -18.5t-72 -49.5t-48 -71.5t-17 -86.5v-532h-185v1096q-23 14 -47 24q-23 10 -49.5 18.5t-56.5 8.5q-86 0 -140.5 -56.5t-54.5 -148.5
v-20h205v-174h-205v-748h-184v748h-338v-748h-184v748h-113v174h113v20q0 74 21.5 132.5t60 99t91 63.5t113.5 23q23 0 41.5 -3.5t32.5 -7.5q16 -6 29 -10v-164q-8 2 -19 4q-10 2 -21 4t-22 2q-61 0 -102 -40.5t-41 -102.5v-20h338v20q0 80 27.5 147.5t77.5 116.5t120 77
t154 28q31 0 57.5 -5.5t48.5 -11.5q25 -8 47 -14h185v-451q29 29 65 52q33 18 81.5 34.5t109.5 16.5z" />
    <glyph glyph-name="f_f_k.liga" unicode="ffk" horiz-adv-x="1955" 
d="M1751 0l-358 440v-440h-185v1096q-23 14 -47 24q-23 10 -49.5 18.5t-56.5 8.5q-86 0 -140.5 -56.5t-54.5 -148.5v-20h205v-174h-205v-748h-184v748h-338v-748h-184v748h-113v174h113v20q0 74 21.5 132.5t60 99t91 63.5t113.5 23q23 0 41.5 -3.5t32.5 -7.5q16 -6 29 -10
v-164q-8 2 -19 4q-10 2 -21 4t-22 2q-61 0 -102 -40.5t-41 -102.5v-20h338v20q0 80 27.5 147.5t77.5 116.5t120 77t154 28q31 0 57.5 -5.5t48.5 -11.5q25 -8 47 -14h185v-758l317 400h215l-358 -430l409 -492h-225z" />
    <glyph glyph-name="f_f_b.liga" unicode="ffb" horiz-adv-x="2160" 
d="M1649 -10q-70 0 -120 15t-83 36q-37 23 -64 51l-41 -92h-133v1096q-23 14 -47 24q-23 10 -49.5 18.5t-56.5 8.5q-86 0 -140.5 -56.5t-54.5 -148.5v-20h205v-174h-205v-748h-184v748h-338v-748h-184v748h-113v174h113v20q0 74 21.5 132.5t60 99t91 63.5t113.5 23
q23 0 41.5 -3.5t32.5 -7.5q16 -6 29 -10v-164q-8 2 -19 4q-10 2 -21 4t-22 2q-61 0 -102 -40.5t-41 -102.5v-20h338v20q0 80 27.5 147.5t77.5 116.5t120 77t154 28q31 0 57.5 -5.5t48.5 -11.5q25 -8 47 -14h185v-451q27 29 63 52q33 18 80 34.5t113 16.5q92 0 172 -35
t140 -97.5t94 -148.5t34 -190t-34 -190.5t-94 -149t-140 -97t-172 -34.5zM1638 758q-53 0 -101 -21.5t-85 -61.5t-58.5 -94.5t-21.5 -119.5q0 -66 21.5 -120t58.5 -94t85 -61.5t101 -21.5t101.5 21.5t85.5 61.5t58.5 94t21.5 120t-21.5 120t-58.5 94t-85.5 61.5t-101.5 21.5
z" />
    <glyph glyph-name=".notdef" horiz-adv-x="0" 
 />
    <glyph glyph-name="glyph1" horiz-adv-x="0" 
 />
    <glyph glyph-name="glyph1" horiz-adv-x="0" 
 />
    <glyph glyph-name="uni000D" unicode="&#xd;" horiz-adv-x="0" 
 />
    <glyph glyph-name="space" unicode=" " horiz-adv-x="450" 
 />
    <glyph glyph-name="exclam" unicode="!" horiz-adv-x="512" 
d="M338 328h-164l-31 962h226zM369 102q0 -47 -33 -79.5t-80 -32.5t-80 32.5t-33 79.5t33 80t80 33t80 -33t33 -80z" />
    <glyph glyph-name="quotedbl" unicode="&#x22;" horiz-adv-x="645" 
d="M389 1290h164v-379h-164v379zM92 1290h164v-379h-164v379z" />
    <glyph glyph-name="numbersign" unicode="#" horiz-adv-x="1239" 
d="M942 778l-51 -266h246l-31 -143h-246l-72 -369h-143l72 369h-297l-72 -369h-143l71 369h-256l31 143h246l51 266h-246l31 144h246l72 368h143l-72 -368h297l72 368h143l-71 -368h256l-31 -144h-246zM799 778h-307l-52 -266h308z" />
    <glyph glyph-name="dollar" unicode="$" 
d="M82 942q0 66 26.5 125t73.5 106.5t110.5 78t137.5 38.5v185h174v-195q70 -12 129.5 -44t103.5 -81t69.5 -113.5t25.5 -140.5h-195q0 100 -62.5 162.5t-162.5 62.5q-53 0 -97 -15t-75 -42t-47.5 -59.5t-16.5 -67.5q0 -66 51.5 -103.5t127 -64t165 -52.5t165 -69
t127 -114.5t51.5 -188.5q0 -66 -28 -126t-75 -107t-113.5 -78t-142.5 -39v-184h-174v184q-78 4 -143.5 33.5t-112.5 80t-74.5 121t-27.5 154.5h194q0 -109 60.5 -167t185.5 -58q131 0 193.5 54t62.5 132q0 72 -51 112t-127 68.5t-165 54t-165 67.5t-127 109.5t-51 180.5z
" />
    <glyph glyph-name="percent" unicode="%" horiz-adv-x="1259" 
d="M164 0l788 1290h144l-789 -1290h-143zM184 1024q0 -31 12.5 -58.5t33 -49t46 -34t52.5 -12.5t52.5 12.5t45.5 34t32.5 49t12.5 58.5t-12.5 58.5t-32.5 49t-46 34t-52 12.5q-27 0 -52.5 -12.5t-46 -34t-33 -49t-12.5 -58.5zM594 1024q0 -53 -21.5 -101.5t-58.5 -85
t-85 -58t-101 -21.5t-101.5 21.5t-85.5 58t-58.5 85t-21.5 101.5t21.5 101.5t58.5 85t85 58t102 21.5q53 0 101 -21.5t85 -58t58.5 -85t21.5 -101.5zM1075 266q0 31 -12 58.5t-32.5 49t-46.5 34t-52 12.5q-27 0 -52.5 -12.5t-46 -34t-33 -49t-12.5 -58.5t12.5 -58.5t33 -49
t46 -33.5t52.5 -12t52.5 12t46 33.5t32.5 49t12 58.5zM666 266q0 53 21.5 101.5t58 85t85 58t101.5 21.5t101 -21.5t85 -58t58.5 -85t21.5 -101.5t-21.5 -101t-58.5 -85t-85 -58.5t-101 -21.5t-101.5 21.5t-85 58.5t-58 85t-21.5 101z" />
    <glyph glyph-name="ampersand" unicode="&#x26;" horiz-adv-x="1105" 
d="M952 0l-164 164q-35 -51 -88 -88q-45 -33 -111.5 -59.5t-158.5 -26.5q-78 0 -141.5 25.5t-109.5 68.5t-71.5 100.5t-25.5 122.5q0 80 32.5 144.5t73.5 109.5q47 53 109 94l-51 62q-23 27 -46.5 54.5t-43 59t-31.5 68.5t-12 84q0 61 25.5 116.5t68.5 98.5t100.5 67.5
t122.5 24.5q66 0 123 -24.5t100 -67.5t69 -98.5t26 -116.5q0 -49 -12.5 -89t-33 -71.5t-46 -57.5t-52.5 -48l-72 -62l236 -235l123 194h205l-205 -317l297 -297h-236zM420 768l72 61q8 6 21 21.5t26.5 36t23.5 45t10 51.5q0 53 -40.5 93t-102.5 40q-61 0 -102 -40t-41 -93
q0 -31 10 -57.5t22.5 -46t23.5 -32.5t15 -18zM440 154q53 0 97.5 19.5t74.5 41.5q37 27 64 61l-256 256q-43 -29 -78 -63q-29 -29 -52.5 -71t-23.5 -91q0 -61 48 -107t126 -46z" />
    <glyph glyph-name="quotesingle" unicode="'" horiz-adv-x="348" 
d="M92 1290h164v-379h-164v379z" />
    <glyph glyph-name="parenleft" unicode="(" horiz-adv-x="563" 
d="M276 461q0 -166 38 -305.5t85 -243.5q53 -121 123 -219l-133 -92q-80 104 -143 237q-53 115 -98.5 272.5t-45.5 350.5t45.5 350.5t98.5 271.5q63 133 143 238l133 -92q-70 -98 -123 -219q-47 -104 -85 -243.5t-38 -305.5z" />
    <glyph glyph-name="parenright" unicode=")" horiz-adv-x="563" 
d="M287 461q0 166 -38 305t-85 244q-53 121 -123 219l133 92q80 -104 143 -238q53 -115 98.5 -272.5t45.5 -349.5q0 -193 -45 -350.5t-99 -272.5q-63 -133 -143 -237l-133 92q70 98 123 219q47 104 85 243.5t38 305.5z" />
    <glyph glyph-name="asterisk" unicode="*" horiz-adv-x="675" 
d="M246 963l-205 51l41 133l194 -72l-10 215h144l-11 -215l195 72l41 -133l-205 -51l133 -164l-123 -82l-102 174l-102 -174l-123 82z" />
    <glyph glyph-name="plus" unicode="+" horiz-adv-x="931" 
d="M553 932v-328h317v-164h-317v-327h-174v327h-318v164h318v328h174z" />
    <glyph glyph-name="comma" unicode="," horiz-adv-x="348" 
d="M174 215q47 0 80 -35t33 -88q0 -78 -25.5 -132t-56.5 -89q-37 -41 -82 -66l-31 41q20 14 39 37q16 18 30.5 45t22.5 62q-53 0 -88 32.5t-35 79.5t33 80t80 33z" />
    <glyph glyph-name="hyphen" unicode="-" horiz-adv-x="716" 
d="M655 440h-594v164h594v-164z" />
    <glyph glyph-name="period" unicode="." horiz-adv-x="348" 
d="M287 102q0 -47 -33 -79.5t-80 -32.5t-80 32.5t-33 79.5t33 80t80 33t80 -33t33 -80z" />
    <glyph glyph-name="slash" unicode="/" horiz-adv-x="706" 
d="M174 -369h-174l532 1659h175z" />
    <glyph glyph-name="zero" unicode="0" horiz-adv-x="1167" 
d="M901 645q0 119 -27.5 209t-72.5 150.5t-102.5 91t-114.5 30.5t-114.5 -30.5t-102.5 -91t-73 -150.5t-28 -209t28 -209t73 -150.5t102 -91t115 -30.5q57 0 114.5 30.5t102.5 91t72.5 150.5t27.5 209zM1096 645q0 -158 -41 -279.5t-112 -205.5t-163 -127t-196 -43
t-196.5 43t-163 127t-111.5 205.5t-41 279.5t41 280t111.5 205.5t162.5 126.5t197 43q104 0 196 -43t163 -126.5t112 -205.5t41 -280z" />
    <glyph glyph-name="one" unicode="1" horiz-adv-x="655" 
d="M502 1290v-1290h-195v1024l-174 -113l-92 154l328 225h133z" />
    <glyph glyph-name="two" unicode="2" horiz-adv-x="993" 
d="M911 184v-184h-829v143l512 553q35 37 61 76q23 35 42.5 76t19.5 84q0 86 -58.5 140t-166.5 54q-100 0 -163 -62.5t-63 -162.5h-194q0 88 29.5 162t84 126t132 81.5t174.5 29.5q96 0 173.5 -28.5t132 -79.5t84 -121t29.5 -149q0 -61 -28.5 -123t-63.5 -109
q-41 -55 -92 -106l-367 -400h551z" />
    <glyph glyph-name="three" unicode="3" horiz-adv-x="1013" 
d="M72 942q4 74 35.5 138.5t86 113.5t130 77.5t168.5 28.5q88 0 162.5 -29.5t130 -79.5t86 -114.5t30.5 -134.5t-25.5 -120t-56.5 -83q-37 -37 -82 -63q57 -27 103 -70q39 -37 70.5 -98.5t31.5 -149.5q0 -74 -31.5 -140t-89 -116.5t-138.5 -81t-181 -30.5t-180 28.5
t-136.5 77.5t-88 113.5t-36.5 138.5h195q4 -35 22.5 -67.5t50 -59t76 -42t97.5 -15.5q117 0 181.5 59.5t64.5 145.5t-65 145t-181 59h-92v175h82q100 0 157.5 53t57.5 131q0 86 -57.5 140t-157.5 54t-159 -53t-67 -131h-194z" />
    <glyph glyph-name="four" unicode="4" horiz-adv-x="993" 
d="M952 256h-143v-256h-195v256h-573v164l543 870h225v-850h143v-184zM614 440v564l-348 -564h348z" />
    <glyph glyph-name="five" unicode="5" horiz-adv-x="1034" 
d="M532 870q88 0 167 -33.5t137.5 -94t92.5 -140.5t34 -172t-35 -172t-95.5 -140.5t-142.5 -94t-178 -33.5t-174 28.5t-133 77.5t-87 113.5t-36 138.5h194q4 -35 22.5 -67.5t49.5 -59t73 -42t91 -15.5q53 0 100 20.5t82 55t54.5 84t19.5 106.5t-19.5 106.5t-54.5 84t-82 55
t-100 20.5q-61 0 -106.5 -24.5t-73.5 -53.5q-35 -35 -56 -75h-163l82 747h686v-184h-521l-32 -307q23 18 55 35q27 14 64.5 25t84.5 11z" />
    <glyph glyph-name="six" unicode="6" 
d="M512 -10q-96 0 -178 33.5t-142.5 94t-95.5 140.5t-35 172q0 57 19.5 114.5t42.5 102.5q27 53 61 101l359 542h215l-287 -430q10 2 25 4q10 2 25.5 4t31.5 2q80 0 154.5 -33.5t131 -94t90.5 -140.5t34 -172t-35 -172t-95.5 -140.5t-142.5 -94t-178 -33.5zM256 430
q0 -57 19.5 -106.5t54.5 -84t82 -55t100 -20.5t100 20.5t82 55t54.5 84t19.5 106.5t-19.5 106.5t-54.5 84t-82 55t-100 20.5t-100 -20.5t-82 -55t-54.5 -84t-19.5 -106.5z" />
    <glyph glyph-name="seven" unicode="7" horiz-adv-x="931" 
d="M881 1290v-133l-533 -1157h-205l512 1106h-583v184h809z" />
    <glyph glyph-name="eight" unicode="8" horiz-adv-x="1003" 
d="M502 -10q-100 0 -181 30.5t-138.5 82t-89.5 120t-32 146.5q0 92 32 154.5t71 101.5q45 45 102 71q-43 27 -78 64q-29 33 -52 80t-23 112q0 70 28.5 132.5t80.5 110.5t124 76.5t156 28.5t155.5 -28.5t124 -76.5t81 -110.5t28.5 -132.5q0 -66 -24.5 -112.5t-53.5 -79.5
q-35 -37 -76 -64q57 -27 103 -71q39 -39 70.5 -101.5t31.5 -154.5q0 -78 -31.5 -146.5t-89 -120t-138.5 -82t-181 -30.5zM502 594q-117 0 -181.5 -61.5t-64.5 -153.5t64.5 -153.5t181.5 -61.5t181.5 61.5t64.5 153.5t-64.5 153.5t-181.5 61.5zM502 768q86 0 140 52t54 122
q0 78 -54 131t-140 53t-140.5 -53t-54.5 -131q0 -70 54.5 -122t140.5 -52z" />
    <glyph glyph-name="nine" unicode="9" 
d="M512 1300q96 0 178 -33.5t142.5 -94t95.5 -140.5t35 -172q0 -59 -19.5 -115.5t-42.5 -101.5q-27 -53 -61 -100l-359 -543h-215l287 430q-10 -4 -23 -6q-10 -2 -25.5 -3t-33.5 -1q-80 0 -154.5 33.5t-131 94t-90.5 140.5t-34 172t35 172t95.5 140.5t142.5 94t178 33.5z
M768 860q0 57 -19.5 106.5t-54.5 84t-82 55t-100 20.5t-100 -20.5t-82 -55t-54.5 -83.5t-19.5 -107q0 -57 19.5 -106t54.5 -84t82 -55.5t100 -20.5t100 20.5t82 55.5t54.5 84t19.5 106z" />
    <glyph glyph-name="colon" unicode=":" horiz-adv-x="348" 
d="M287 809q0 -47 -33 -80t-80 -33t-80 33t-33 80t33 80t80 33t80 -33t33 -80zM287 102q0 -47 -33 -79.5t-80 -32.5t-80 32.5t-33 79.5t33 80t80 33t80 -33t33 -80z" />
    <glyph glyph-name="semicolon" unicode=";" horiz-adv-x="348" 
d="M287 809q0 -47 -33 -80t-80 -33t-80 33t-33 80t33 80t80 33t80 -33t33 -80zM174 215q47 0 80 -35t33 -88q0 -78 -25.5 -132t-56.5 -89q-37 -41 -82 -66l-31 41q20 14 39 37q16 18 30.5 45t22.5 62q-53 0 -88 32.5t-35 79.5t33 80t80 33z" />
    <glyph glyph-name="less" unicode="&#x3c;" horiz-adv-x="911" 
d="M829 184v-184l-747 389v123l747 389v-184l-522 -266z" />
    <glyph glyph-name="equal" unicode="=" horiz-adv-x="921" 
d="M860 799v-174h-799v174h799zM61 420h799v-174h-799v174z" />
    <glyph glyph-name="greater" unicode="&#x3e;" horiz-adv-x="911" 
d="M604 451l-522 266v184l747 -389v-123l-747 -389v184z" />
    <glyph glyph-name="question" unicode="?" horiz-adv-x="880" 
d="M819 932q0 -74 -21.5 -125t-55 -90t-71.5 -73t-72 -74t-55.5 -93t-21.5 -129v-20h-184v20q0 96 21.5 163t55.5 114t71.5 80.5t71.5 66.5t55.5 70t21.5 90q0 78 -54.5 131t-140.5 53t-140 -59.5t-54 -175.5v-21h-185v21q0 96 29 174t80 132t120.5 83.5t149.5 29.5
t149.5 -28.5t121 -78.5t80 -117.5t28.5 -143.5zM543 102q0 -47 -33 -79.5t-80 -32.5t-80 32.5t-33 79.5t33 80t80 33t80 -33t33 -80z" />
    <glyph glyph-name="at" unicode="@" horiz-adv-x="1536" 
d="M778 1147q145 0 272.5 -53.5t221.5 -144.5t148.5 -212t54.5 -256q0 -88 -24 -156.5t-62.5 -115.5t-91 -71.5t-109.5 -24.5q-61 0 -104.5 16t-69.5 39q-33 25 -51 57q-23 -33 -56 -57q-29 -23 -70.5 -39t-99.5 -16q-66 0 -123 25.5t-100 71.5t-68.5 109.5t-25.5 141.5
q0 76 25.5 140.5t68.5 110.5t100.5 71.5t122.5 25.5q49 0 87 -15.5t65 -31.5q31 -20 53 -45l31 82h112v-400q0 -86 28 -119.5t75 -33.5q53 0 93 52t40 183q0 106 -43 203.5t-117 170.5t-173 116t-210 43t-210 -43t-172.5 -118t-116.5 -176.5t-43 -215.5q0 -115 43 -216.5
t116.5 -176t173 -117.5t209.5 -43q66 0 119 14.5t92 30.5q45 20 82 47l78 -117q-49 -33 -107 -55q-49 -20 -116.5 -36.5t-147.5 -16.5q-145 0 -272 54t-221.5 147.5t-148.5 218t-54 266.5q0 141 54 266t148.5 218t221.5 147.5t272 54.5zM758 246q86 0 140 57t54 158
q0 100 -54 157.5t-140 57.5q-39 0 -74 -16.5t-61.5 -45t-43 -68.5t-16.5 -85q0 -47 16.5 -86t43 -67.5t61.5 -45t74 -16.5z" />
    <glyph glyph-name="A" unicode="A" horiz-adv-x="1146" 
d="M205 0h-205l492 1290h163l492 -1290h-205l-113 297h-512zM758 481l-185 512l-184 -512h369z" />
    <glyph glyph-name="B" unicode="B" horiz-adv-x="1157" 
d="M901 686q51 -29 92 -74q35 -39 63.5 -98t28.5 -145q0 -74 -30.5 -140.5t-86 -117t-130 -81t-162.5 -30.5h-522v1290h512q76 0 143.5 -28.5t117.5 -77.5t78.5 -113.5t28.5 -138.5q0 -61 -21.5 -107.5t-45.5 -76.5q-29 -37 -66 -62zM348 758h318q78 0 131 52t53 122
t-53.5 122t-130.5 52h-318v-348zM676 184q45 0 85 16.5t68.5 44t45 64.5t16.5 80t-16.5 80t-45 64.5t-68.5 44t-85 16.5h-328v-410h328z" />
    <glyph glyph-name="C" unicode="C" horiz-adv-x="1310" 
d="M266 645q0 -104 36 -192t94.5 -152.5t134 -100.5t155.5 -36q74 0 133.5 21.5t104.5 59.5t74.5 88t45.5 107h205q-23 -92 -72 -174t-121.5 -143.5t-165.5 -97t-204 -35.5q-123 0 -234.5 50t-195.5 139t-134 208t-50 258q0 137 50 257t134 209t195.5 139t234.5 50
q106 0 198.5 -35.5t163 -97t120 -143.5t71.5 -174h-205q-16 57 -46 107.5t-74 88t-101 59t-127 21.5q-80 0 -155.5 -35.5t-134 -100t-94.5 -153t-36 -192.5z" />
    <glyph glyph-name="D" unicode="D" horiz-adv-x="1228" 
d="M543 184q80 0 155.5 35t134 96.5t94.5 145.5t36 184t-36 184t-94.5 145.5t-134 96.5t-155.5 35h-195v-922h195zM154 0v1290h389q123 0 234.5 -50t195.5 -138t134 -205t50 -252t-50 -252t-134 -205t-195.5 -138t-234.5 -50h-389z" />
    <glyph glyph-name="E" unicode="E" horiz-adv-x="1126" 
d="M1024 184v-184h-870v1290h850v-184h-656v-348h604v-185h-604v-389h676z" />
    <glyph glyph-name="F" unicode="F" horiz-adv-x="1034" 
d="M348 1106v-369h512v-184h-512v-553h-194v1290h819v-184h-625z" />
    <glyph glyph-name="G" unicode="G" horiz-adv-x="1372" 
d="M686 -10q-123 0 -234.5 50t-195.5 139t-134 208t-50 258q0 137 50 257t134 209t195.5 139t234.5 50q106 0 198.5 -35.5t163 -95t120 -137.5t71.5 -162h-205q-16 49 -46 96.5t-74 82t-101 56t-127 21.5q-80 0 -155.5 -35.5t-134 -100t-94.5 -152.5t-36 -193
q0 -104 36 -192t94.5 -152.5t134 -100.5t155.5 -36q76 0 140.5 25.5t113.5 68.5t81 100.5t44 122.5h-389v185h573v-666h-143l-51 123q-41 -39 -97 -68q-47 -25 -115.5 -45t-156.5 -20z" />
    <glyph glyph-name="H" unicode="H" horiz-adv-x="1290" 
d="M1137 1290v-1290h-195v563h-594v-563h-194v1290h194v-542h594v542h195z" />
    <glyph glyph-name="I" unicode="I" horiz-adv-x="501" 
d="M348 0h-194v1290h194v-1290z" />
    <glyph glyph-name="J" unicode="J" horiz-adv-x="952" 
d="M819 1290v-921q0 -80 -29.5 -149.5t-82 -121t-126 -80t-161.5 -28.5t-162 28.5t-126 80t-82 121t-30 149.5h195q0 -92 56.5 -148.5t148.5 -56.5t148.5 56t56.5 149v921h194z" />
    <glyph glyph-name="K" unicode="K" horiz-adv-x="1075" 
d="M860 0l-512 604v-604h-194v1290h194v-594l471 594h236l-523 -635l564 -655h-236z" />
    <glyph glyph-name="L" unicode="L" horiz-adv-x="983" 
d="M963 184v-184h-809v1290h194v-1106h615z" />
    <glyph glyph-name="M" unicode="M" horiz-adv-x="1556" 
d="M1403 1290v-1290h-195v799l-368 -799h-123l-369 799v-799h-194v1290h163l461 -993l461 993h164z" />
    <glyph glyph-name="N" unicode="N" horiz-adv-x="1290" 
d="M1137 1290v-1290h-164l-625 922v-922h-194v1290h163l625 -921v921h195z" />
    <glyph glyph-name="O" unicode="O" horiz-adv-x="1372" 
d="M1106 645q0 104 -36 192.5t-94 153t-134 100t-156 35.5t-155.5 -35.5t-134 -100t-94.5 -152.5t-36 -193q0 -104 36 -192t94.5 -152.5t134 -100.5t155.5 -36t156 36t134 100.5t94 152.5t36 192zM1300 645q0 -139 -50 -258t-134 -208t-195.5 -139t-234.5 -50t-234.5 50
t-195.5 139t-134 208t-50 258q0 137 50 257t134 209t195.5 139t234.5 50t234.5 -50t195.5 -139t134 -209t50 -257z" />
    <glyph glyph-name="P" unicode="P" horiz-adv-x="1105" 
d="M625 1290q84 0 158.5 -32.5t130 -88t88 -130t32.5 -158.5t-32.5 -159t-88 -130t-130 -88t-158.5 -33h-277v-471h-194v1290h471zM625 655q43 0 81.5 17.5t68.5 48.5t47.5 72t17.5 88q0 45 -17.5 86t-47.5 71.5t-68.5 49t-81.5 18.5h-277v-451h277z" />
    <glyph glyph-name="Q" unicode="Q" horiz-adv-x="1372" 
d="M686 -10q-123 0 -234.5 50t-195.5 139t-134 208t-50 258q0 137 50 257t134 209t195.5 139t234.5 50t234.5 -50t195.5 -139t134 -209t50 -257q0 -100 -25.5 -181t-55.5 -138q-37 -68 -82 -121l143 -144l-113 -122l-153 153q-39 -29 -88 -51q-43 -20 -102.5 -35.5
t-137.5 -15.5zM1106 645q0 104 -36 192.5t-94 153t-134 100t-156 35.5t-155.5 -35.5t-134 -100t-94.5 -152.5t-36 -193q0 -104 36 -192t94.5 -152.5t134 -100.5t155.5 -36q47 0 83 9t60 22q29 12 52 30l-123 123l112 123l134 -133q29 33 51 80q18 41 34.5 97t16.5 130z" />
    <glyph glyph-name="R" unicode="R" horiz-adv-x="1146" 
d="M573 512h-225v-512h-194v1290h512q80 0 151.5 -30.5t123.5 -83t83 -124t31 -151.5q0 -113 -45 -183.5t-99 -111.5q-63 -49 -143 -74l317 -532h-215zM348 696h318q39 0 73.5 16.5t61 44t43 64.5t16.5 80t-16.5 80t-43 64.5t-61 44t-73.5 16.5h-318v-410z" />
    <glyph glyph-name="S" unicode="S" 
d="M82 942q0 70 30.5 134.5t88 114.5t136.5 79.5t175 29.5q92 0 169 -30.5t133 -85t87 -127t31 -156.5h-195q0 100 -62.5 162.5t-162.5 62.5q-53 0 -97 -15t-75 -42t-47.5 -59.5t-16.5 -67.5q0 -68 51.5 -104.5t127 -63t165 -52.5t165 -70t127 -115.5t51.5 -188.5
q0 -70 -32 -134t-90.5 -114.5t-141.5 -80t-187 -29.5t-185 29.5t-138.5 82t-87 126t-29.5 161.5h194q0 -109 61.5 -167t184.5 -58q131 0 193.5 53t62.5 131q0 72 -51 113t-127 68.5t-165 54t-165 68.5t-127 109.5t-51 180.5z" />
    <glyph glyph-name="T" unicode="T" horiz-adv-x="1034" 
d="M31 1290h973v-184h-390v-1106h-194v1106h-389v184z" />
    <glyph glyph-name="U" unicode="U" horiz-adv-x="1228" 
d="M614 164q61 0 113.5 22.5t91.5 62.5t60.5 96t21.5 126v819h195v-819q0 -104 -36 -192.5t-100.5 -153t-152.5 -100t-193 -35.5q-104 0 -192 35.5t-152.5 100t-100.5 153t-36 192.5v819h195v-819q0 -70 21.5 -126t60.5 -96t91 -62.5t113 -22.5z" />
    <glyph glyph-name="V" unicode="V" horiz-adv-x="1167" 
d="M20 1290h205l359 -993l358 993h205l-471 -1290h-184z" />
    <glyph glyph-name="W" unicode="W" horiz-adv-x="1638" 
d="M553 0h-133l-400 1290h195l277 -891l266 891h123l266 -891l276 891h195l-399 -1290h-134l-266 860z" />
    <glyph glyph-name="X" unicode="X" horiz-adv-x="1085" 
d="M829 1290h215l-389 -635l410 -655h-215l-307 492l-307 -492h-216l410 655l-389 635h215l287 -471z" />
    <glyph glyph-name="Y" unicode="Y" horiz-adv-x="1054" 
d="M532 707l297 583h205l-409 -788v-502h-195v502l-410 788h205l297 -583h10z" />
    <glyph glyph-name="Z" unicode="Z" 
d="M307 184h656v-184h-902v133l625 973h-604v184h850v-133z" />
    <glyph glyph-name="bracketleft" unicode="[" horiz-adv-x="604" 
d="M328 -205h235v-164h-409v1659h409v-164h-235v-1331z" />
    <glyph glyph-name="backslash" unicode="\" horiz-adv-x="706" 
d="M0 1290h174l533 -1659h-175z" />
    <glyph glyph-name="bracketright" unicode="]" horiz-adv-x="604" 
d="M276 1126h-235v164h410v-1659h-410v164h235v1331z" />
    <glyph glyph-name="asciicircum" unicode="^" horiz-adv-x="778" 
d="M61 696l287 594h82l287 -594h-164l-164 359l-164 -359h-164z" />
    <glyph glyph-name="underscore" unicode="_" horiz-adv-x="563" 
d="M604 -358h-645v163h645v-163z" />
    <glyph glyph-name="grave" unicode="`" horiz-adv-x="419" 
d="M358 1044h-122l-175 246h175z" />
    <glyph glyph-name="a" unicode="a" horiz-adv-x="952" 
d="M481 932q80 0 146.5 -25.5t113.5 -69.5t73 -103.5t26 -129.5v-604h-133l-41 92q-27 -29 -64 -51q-33 -20 -83 -35.5t-120 -15.5q-154 0 -235.5 76.5t-81.5 199.5q0 70 26.5 126.5t91 96t175 62t280.5 22.5v31q0 70 -44 112t-130 42q-92 0 -134 -33t-50 -80h-184
q8 123 103 205t265 82zM410 154q117 0 181 60t64 146v50q-123 0 -198.5 -11.5t-118.5 -31t-57.5 -48t-14.5 -63.5q0 -39 37 -70.5t107 -31.5z" />
    <glyph glyph-name="b" unicode="b" horiz-adv-x="1085" 
d="M573 -10q-70 0 -120 15t-82 36q-37 23 -64 51l-41 -92h-133v1290h184v-461q27 29 64 52q33 18 80 34.5t112 16.5q92 0 172 -35t140.5 -97.5t94.5 -148.5t34 -190t-34 -190.5t-94.5 -149t-140.5 -97t-172 -34.5zM563 758q-53 0 -101 -21.5t-85 -61.5t-58.5 -94.5
t-21.5 -119.5q0 -66 21.5 -120t58.5 -94t85 -61.5t101 -21.5t101.5 21.5t85 61.5t58 94t21.5 120t-21.5 120t-58 94t-85 61.5t-101.5 21.5z" />
    <glyph glyph-name="c" unicode="c" horiz-adv-x="983" 
d="M922 338q-16 -74 -51 -137.5t-88.5 -110.5t-122 -73.5t-148.5 -26.5q-92 0 -172 34.5t-140.5 97t-94 148.5t-33.5 191q0 104 33.5 190t94 148.5t140.5 97.5t172 35q80 0 148.5 -26.5t122 -74t88 -111t51.5 -136.5h-195q-23 78 -76 126t-139 48q-49 0 -96 -21.5t-82 -61.5
t-56.5 -94.5t-21.5 -119.5q0 -66 21.5 -120t56.5 -94t82 -61.5t96 -21.5q86 0 139.5 48t75.5 126h195z" />
    <glyph glyph-name="d" unicode="d" horiz-adv-x="1085" 
d="M512 -10q-92 0 -172 34.5t-140.5 97t-94 148.5t-33.5 191q0 104 33.5 190t94 148.5t140.5 97.5t172 35q66 0 113 -16.5t80 -34.5q37 -23 63 -52v461h184v-1290h-133l-41 92q-27 -29 -63 -51q-33 -20 -83 -35.5t-120 -15.5zM522 758q-53 0 -101 -21.5t-85 -61.5
t-58.5 -94.5t-21.5 -119.5q0 -66 21.5 -120t58.5 -94t85 -61.5t101 -21.5t101.5 21.5t85 61.5t58 94t21.5 120t-21.5 120t-58 94t-85 61.5t-101.5 21.5z" />
    <glyph glyph-name="e" unicode="e" horiz-adv-x="1013" 
d="M922 266q-23 -57 -58 -107t-84 -88t-113.5 -59.5t-144.5 -21.5q-92 0 -172 34.5t-140 97t-94 148.5t-34 191q0 104 34 190t92 148.5t137 97.5t167 35t167 -35t137 -97.5t92 -148.5t34 -190q0 -16 -2 -31.5t-4 -26.5q-2 -14 -4 -24h-656q4 -43 25 -82t52.5 -68.5t75.5 -47
t93 -17.5q84 0 133.5 36t71.5 66h195zM512 758q-92 0 -155.5 -62.5t-80.5 -163.5h492q-16 100 -81.5 163t-174.5 63z" />
    <glyph glyph-name="f" unicode="f" horiz-adv-x="583" 
d="M543 748h-205v-748h-184v748h-113v174h113v61q0 74 21.5 132.5t60 99t91 63t113.5 22.5q23 0 41.5 -3t32.5 -7q16 -6 29 -10v-164q-8 2 -19 4q-10 2 -21 4t-22 2q-61 0 -102 -41t-41 -102v-61h205v-174z" />
    <glyph glyph-name="g" unicode="g" horiz-adv-x="1054" 
d="M932 922v-881q0 -84 -30 -155.5t-84 -124t-132 -81t-174 -28.5q-84 0 -151.5 23.5t-117.5 62.5t-83 91t-47 110h184q23 -47 73 -85t142 -38q109 0 172.5 62.5t63.5 162.5v92q-27 -29 -64 -51q-33 -20 -80 -35.5t-112 -15.5q-84 0 -161 34.5t-134.5 95t-91 142.5
t-33.5 178t33.5 178t91 142.5t134.5 95.5t161 35q70 0 120 -16.5t82 -34.5q37 -23 64 -52l41 93h133zM514 205q49 0 95 21.5t81 59.5t56.5 88t21.5 107t-21.5 107.5t-56.5 88.5t-82 59.5t-96 21.5t-96 -21.5t-82 -59.5t-56.5 -88t-21.5 -108q0 -57 21.5 -107t57.5 -88
t82 -59.5t97 -21.5z" />
    <glyph glyph-name="h" unicode="h" horiz-adv-x="1054" 
d="M573 932q76 0 143.5 -30t118 -82t79 -125.5t28.5 -162.5v-532h-184v532q0 45 -17.5 86t-47 72t-68.5 49.5t-82 18.5q-47 0 -88 -18.5t-72 -49.5t-48.5 -71.5t-17.5 -86.5v-532h-184v1290h184v-461q29 29 66 52q33 18 81 34.5t109 16.5z" />
    <glyph glyph-name="i" unicode="i" horiz-adv-x="430" 
d="M307 0h-184v922h184v-922zM215 1065q-47 0 -80 32.5t-33 80.5q0 47 33 79.5t80 32.5t80 -32.5t33 -79.5t-33 -80t-80 -33z" />
    <glyph glyph-name="j" unicode="j" horiz-adv-x="430" 
d="M123 922h184v-942q0 -74 -21.5 -132.5t-60.5 -99.5t-91 -63.5t-114 -22.5q-43 0 -73 10q-16 4 -29 11v163q8 -4 19 -6q10 -2 20 -3t23 -1q61 0 102 41t41 103v942zM215 1065q-47 0 -80 32.5t-33 80.5q0 47 33 79.5t80 32.5t80 -32.5t33 -79.5t-33 -80t-80 -33z" />
    <glyph glyph-name="k" unicode="k" horiz-adv-x="880" 
d="M676 0l-359 440v-440h-184v1290h184v-768l318 400h215l-358 -430l409 -492h-225z" />
    <glyph glyph-name="l" unicode="l" horiz-adv-x="450" 
d="M317 0h-184v1290h184v-1290z" />
    <glyph glyph-name="m" unicode="m" horiz-adv-x="1495" 
d="M1055 932q66 0 123 -25.5t100 -75t68.5 -120t25.5 -158.5v-553h-184v553q0 92 -52.5 148.5t-121.5 56.5q-70 0 -122 -56.5t-52 -148.5v-553h-185v553q0 92 -52 148.5t-122 56.5t-122 -56.5t-52 -148.5v-553h-184v922h133l41 -93q25 29 59 52q29 18 71 34.5t95 16.5
q66 0 113 -22.5t80 -49.5q37 -33 63 -72l18 22q17 21 52 49t86 50.5t121 22.5z" />
    <glyph glyph-name="n" unicode="n" horiz-adv-x="1044" 
d="M563 932q76 0 143.5 -30t117.5 -82t79 -125.5t29 -162.5v-532h-184v532q0 45 -17.5 86t-47.5 72t-69 49.5t-82 18.5q-47 0 -88 -18.5t-71.5 -49.5t-48 -71.5t-17.5 -86.5v-532h-184v922h133l41 -93q27 29 63 52q33 18 83 34.5t120 16.5z" />
    <glyph glyph-name="o" unicode="o" 
d="M768 461q0 66 -21.5 120t-56.5 94t-82 61.5t-96 21.5t-96 -21.5t-82 -61.5t-56.5 -94.5t-21.5 -119.5q0 -66 21.5 -120t56.5 -94t82 -61.5t96 -21.5t96 21.5t82 61.5t56.5 94t21.5 120zM952 461q0 -104 -33.5 -190.5t-94 -149t-140.5 -97t-172 -34.5t-172 34.5t-140.5 97
t-94 148.5t-33.5 191q0 104 33.5 190t94 148.5t140.5 97.5t172 35t172 -35t140.5 -97.5t94 -148.5t33.5 -190z" />
    <glyph glyph-name="p" unicode="p" horiz-adv-x="1075" 
d="M563 932q92 0 172 -35t140.5 -97.5t94.5 -148.5t34 -190t-34 -190.5t-94.5 -149t-140.5 -97t-172 -34.5q-66 0 -113 15t-79 36q-37 23 -64 51v-420h-184v1250h133l41 -93q27 29 63 52q33 18 83 34.5t120 16.5zM553 164q53 0 101 21.5t85 61.5t58.5 94t21.5 120t-21.5 120
t-58.5 94t-85 61.5t-101 21.5t-101.5 -21.5t-85 -61.5t-58 -94.5t-21.5 -119.5q0 -66 21.5 -120t58 -94t85 -61.5t101.5 -21.5z" />
    <glyph glyph-name="q" unicode="q" horiz-adv-x="1075" 
d="M512 932q70 0 120 -16.5t83 -34.5q37 -23 63 -52l41 93h133v-1250h-184v420q-27 -29 -63 -51q-33 -20 -80 -35.5t-113 -15.5q-92 0 -172 34.5t-140.5 97t-94 148.5t-33.5 191q0 104 33.5 190t94 148.5t140.5 97.5t172 35zM522 164q53 0 101.5 21.5t85 61.5t58 94
t21.5 120t-21.5 120t-58 94t-85 61.5t-101.5 21.5t-101 -21.5t-85 -61.5t-58.5 -94.5t-21.5 -119.5q0 -66 21.5 -120t58.5 -94t85 -61.5t101 -21.5z" />
    <glyph glyph-name="r" unicode="r" horiz-adv-x="634" 
d="M532 932q16 0 26.5 -2t19.5 -4l16 -4v-185q-8 2 -19 4q-10 2 -21 4.5t-22 2.5q-47 0 -88 -18.5t-71.5 -49.5t-48 -72t-17.5 -86v-522h-184v922h133l41 -93q25 29 59 52q29 18 73 34.5t103 16.5z" />
    <glyph glyph-name="s" unicode="s" horiz-adv-x="829" 
d="M256 297q8 -61 47 -97t117 -36q86 0 125 32.5t39 79.5q0 41 -37 62.5t-91.5 36t-118 30t-117.5 44t-91 76.5t-37 130q0 57 22.5 107.5t63.5 88.5t99.5 59.5t132.5 21.5q162 0 245.5 -78t92.5 -209h-185q-8 47 -46 80t-107 33q-70 0 -107 -32t-37 -71q0 -41 37 -62.5
t91.5 -35.5t117.5 -29.5t117.5 -44t91.5 -77t37 -130.5q0 -123 -88 -204.5t-250 -81.5q-170 0 -255 80t-93 227h184z" />
    <glyph glyph-name="t" unicode="t" horiz-adv-x="686" 
d="M389 307q0 -61 41 -102t102 -41q10 0 21.5 1t21.5 3t19 6v-164q-12 -6 -29 -10q-31 -10 -73 -10q-61 0 -113.5 22.5t-91.5 63.5t-60.5 99t-21.5 132v441h-164v174h72q53 0 88 34.5t35 87.5v123h153v-245h205v-174h-205v-441z" />
    <glyph glyph-name="u" unicode="u" horiz-adv-x="1054" 
d="M492 -10q-78 0 -144.5 29.5t-117 82t-79 126t-28.5 161.5v533h184v-533q0 -47 17.5 -88t47 -71.5t68.5 -48t82 -17.5q45 0 86 17.5t72 48t49.5 71.5t18.5 88v533h184v-922h-133l-41 92q-27 -29 -64 -51q-33 -20 -82.5 -35.5t-119.5 -15.5z" />
    <glyph glyph-name="v" unicode="v" horiz-adv-x="942" 
d="M922 922l-369 -922h-164l-369 922h195l256 -666l256 666h195z" />
    <glyph glyph-name="w" unicode="w" horiz-adv-x="1351" 
d="M676 604l-195 -604h-153l-308 922h185l205 -635l204 635h123l205 -635l205 635h184l-307 -922h-154z" />
    <glyph glyph-name="x" unicode="x" horiz-adv-x="860" 
d="M205 0h-205l317 471l-297 451h205l205 -308l205 308h205l-297 -451l317 -471h-205l-225 338z" />
    <glyph glyph-name="y" unicode="y" horiz-adv-x="942" 
d="M20 922h195l256 -666l256 666h195l-390 -983q-31 -78 -60.5 -130.5t-64 -85t-76.5 -47t-95 -14.5q-12 0 -22.5 1t-20.5 3t-19 6v154q78 0 118 32.5t56 80.5l31 92z" />
    <glyph glyph-name="z" unicode="z" horiz-adv-x="808" 
d="M502 748h-441v174h666v-164l-440 -584h461v-174h-687v164z" />
    <glyph glyph-name="braceleft" unicode="{" horiz-adv-x="634" 
d="M92 532q47 0 75 28t28 75v389q0 266 282 266h117v-164h-123q-47 0 -74.5 -27.5t-27.5 -74.5v-389q0 -53 -17.5 -88t-40.5 -53q-25 -23 -55 -33q31 -10 55 -33q23 -20 40.5 -54t17.5 -87v-389q0 -47 27.5 -75t74.5 -28h123v-164h-117q-283 0 -282 267v389q0 47 -28 74.5
t-75 27.5v143z" />
    <glyph glyph-name="bar" unicode="|" horiz-adv-x="665" 
d="M420 -328h-174v1618h174v-1618z" />
    <glyph glyph-name="braceright" unicode="}" horiz-adv-x="634" 
d="M543 389q-47 0 -75 -27.5t-28 -74.5v-389q0 -266 -282 -267h-117v164h123q47 0 74.5 27.5t27.5 75.5v389q0 53 16.5 87t39.5 54q25 23 57 33q-33 10 -57 33q-23 18 -39.5 53t-16.5 88v389q0 47 -27.5 74.5t-74.5 27.5h-123v164h117q283 0 282 -266v-389q0 -47 28 -75
t75 -28v-143z" />
    <glyph glyph-name="asciitilde" unicode="~" horiz-adv-x="921" 
d="M666 399q-49 0 -106.5 19.5t-114 42t-105.5 42t-84 19.5q-47 0 -74.5 -29.5t-27.5 -82.5h-154q0 139 69.5 212.5t186.5 73.5q49 0 106.5 -19.5t113.5 -42t105.5 -42t84.5 -19.5q47 0 74.5 30t27.5 83h154q0 -139 -69.5 -213t-186.5 -74z" />
    <glyph glyph-name="uni00A0" unicode="&#xa0;" horiz-adv-x="450" 
 />
    <glyph glyph-name="exclamdown" unicode="&#xa1;" horiz-adv-x="512" 
d="M369 -328h-226l31 922h164zM369 819q0 -47 -33 -79.5t-80 -32.5t-80 32.5t-33 79.5t33 80t80 33t80 -33t33 -80z" />
    <glyph glyph-name="cent" unicode="&#xa2;" horiz-adv-x="983" 
d="M256 461q0 -66 21.5 -120t56.5 -94t82 -61.5t96 -21.5q86 0 139.5 48t75.5 126h195q-16 -70 -47 -128t-74 -102.5t-96.5 -72t-110.5 -35.5v-184h-174v184q-66 12 -128.5 49t-111.5 96.5t-78.5 139.5t-29.5 176t29.5 176t78.5 139.5t111.5 96t128.5 49.5v184h174v-184
q57 -8 110.5 -36t96.5 -72t73.5 -102.5t47.5 -127.5h-195q-23 78 -76 126t-139 48q-49 0 -96 -21.5t-82 -61.5t-56.5 -94t-21.5 -120z" />
    <glyph glyph-name="sterling" unicode="&#xa3;" horiz-adv-x="1073" 
d="M410 307q0 -29 -8.5 -50t-18.5 -38q-10 -20 -25 -35h656v-184h-922v184q53 0 88 35t35 88v185h-113v184h113v237q0 80 30.5 151t86 123t130.5 82.5t163 30.5q84 0 157.5 -30.5t128 -80.5t86 -116.5t35.5 -140.5h-192q-8 86 -65.5 140t-149.5 54q-47 0 -86 -16t-68 -45
t-45 -68t-16 -84v-237h348v-184h-348v-185z" />
    <glyph glyph-name="currency" unicode="&#xa4;" horiz-adv-x="1146" 
d="M666 686q45 0 85 17.5t68.5 47t45 68.5t16.5 82t-16.5 82t-45 68.5t-68.5 47t-85 17.5h-267v-430h267zM1075 901q0 -78 -30.5 -147.5t-86 -124t-130 -86t-162.5 -31.5h-267v-133h389v-174h-389v-205h-194v205h-154v174h154v133h-154v174h154v604h461q88 0 162.5 -31.5
t130 -86t86 -125t30.5 -146.5z" />
    <glyph glyph-name="yen" unicode="&#xa5;" horiz-adv-x="1075" 
d="M702 645h209v-164h-276v-112h274v-164h-274v-205h-195v205h-276v164h276v112h-276v164h209l-342 645h205l301 -583l303 583h204z" />
    <glyph glyph-name="brokenbar" unicode="&#xa6;" horiz-adv-x="665" 
d="M420 1290v-635h-174v635h174zM246 307h174v-635h-174v635z" />
    <glyph glyph-name="section" unicode="&#xa7;" horiz-adv-x="972" 
d="M891 502q0 -70 -28.5 -118t-63.5 -79q-41 -37 -92 -59q35 -23 61 -53q23 -29 42 -69t19 -93t-23.5 -103.5t-68.5 -89.5t-107.5 -61.5t-137.5 -22.5q-78 0 -140.5 23.5t-107.5 64.5t-71 97.5t-30 121.5h174q8 -61 52.5 -102t122.5 -41q86 0 124.5 33t38.5 80
q0 45 -42 74.5t-106.5 55t-138 53.5t-138 69t-106.5 103.5t-42 156.5q0 70 29.5 121t66.5 86q43 39 98 69q-33 16 -57 45q-23 25 -39 64t-16 94t23.5 105.5t65.5 88t100.5 61t127.5 23.5q147 0 233.5 -81.5t94.5 -204.5h-174q-8 53 -46 88t-108 35t-106.5 -33t-36.5 -80
q0 -49 41 -80t102.5 -57.5t133 -54t133 -69.5t102.5 -104.5t41 -156.5zM707 502q0 70 -55.5 119t-200.5 96q-53 -14 -93 -37q-35 -20 -63.5 -54t-28.5 -83q0 -70 55.5 -120t200.5 -95q51 14 92 37q35 20 64 53t29 84z" />
    <glyph glyph-name="dieresis" unicode="&#xa8;" horiz-adv-x="696" 
d="M287 1178q0 -47 -33 -80t-80 -33t-80 32.5t-33 80.5q0 47 33 79.5t80 32.5t80 -32.5t33 -79.5zM635 1178q0 -47 -33 -80t-80 -33t-79.5 32.5t-32.5 80.5q0 47 32.5 79.5t79.5 32.5t80 -32.5t33 -79.5z" />
    <glyph glyph-name="copyright" unicode="&#xa9;" horiz-adv-x="1433" 
d="M1208 645q0 111 -39 207t-106.5 165.5t-156.5 109.5t-189 40t-189.5 -40t-157 -109.5t-106.5 -165.5t-39 -207t39 -207t106.5 -165.5t156.5 -109.5t190 -40q100 0 189 40t156.5 109.5t106.5 165.5t39 207zM1352 645q0 -139 -50.5 -258t-136.5 -208t-201.5 -139
t-246.5 -50t-247 50t-202 139t-136 208t-50 258q0 137 50 257t136 209t202 139t247 50t246.5 -50t201.5 -139t136.5 -209t50.5 -257zM532 645q0 -49 15.5 -91t42 -71.5t59.5 -46t68 -16.5q70 0 108.5 34.5t55.5 88.5h143q-8 -49 -32.5 -94.5t-62.5 -79t-89.5 -53
t-112.5 -19.5q-66 0 -125 26.5t-104 73.5t-72 110.5t-27 137.5t27 137.5t72 110.5t104.5 73.5t124.5 26.5q61 0 112.5 -19.5t89.5 -53t62.5 -78.5t32.5 -94h-143q-16 53 -55.5 87.5t-108.5 34.5q-35 0 -68 -16t-59.5 -46t-42 -72t-15.5 -91z" />
    <glyph glyph-name="ordfeminine" unicode="&#xaa;" horiz-adv-x="583" 
d="M297 1300q45 0 85 -16t68.5 -44t45 -64.5t16.5 -79.5v-338h-92l-21 51q-16 -18 -39 -31q-20 -12 -47.5 -21t-66.5 -9q-86 0 -135.5 46t-49.5 107q0 43 15.5 77t52.5 57.5t100.5 36.5t159.5 13v11q0 39 -27.5 65.5t-74.5 26.5q-39 0 -61.5 -19.5t-30.5 -42.5h-113
q0 70 57.5 122t157.5 52zM389 993q-66 0 -107.5 -7t-65 -18.5t-33 -25.5t-9.5 -29q0 -25 23.5 -44t74.5 -19q49 0 83 35t34 88v20z" />
    <glyph glyph-name="guillemotleft" unicode="&#xab;" horiz-adv-x="911" 
d="M471 133h-184l-226 328l226 327h184l-225 -327zM850 133h-184l-226 328l226 327h184l-225 -327z" />
    <glyph glyph-name="logicalnot" unicode="&#xac;" horiz-adv-x="952" 
d="M911 788v-430h-174v267h-696v163h870z" />
    <glyph glyph-name="uni00AD" unicode="&#xad;" horiz-adv-x="716" 
d="M655 440h-594v164h594v-164z" />
    <glyph glyph-name="registered" unicode="&#xae;" horiz-adv-x="1433" 
d="M973 768q0 -59 -24.5 -96t-53.5 -60q-35 -25 -76 -39l185 -266h-154l-164 246h-61v-246h-133v676h256q45 0 85.5 -17.5t71.5 -47t49.5 -68.5t18.5 -82zM748 676q39 0 65.5 26.5t26.5 65.5t-27 65.5t-65 26.5h-123v-184h123zM1208 645q0 111 -39 207t-106.5 165.5
t-156.5 109.5t-189 40t-189.5 -40t-157 -109.5t-106.5 -165.5t-39 -207t39 -207t106.5 -165.5t156.5 -109.5t190 -40q100 0 189 40t156.5 109.5t106.5 165.5t39 207zM1352 645q0 -139 -50.5 -258t-136.5 -208t-201.5 -139t-246.5 -50t-247 50t-202 139t-136 208t-50 258
q0 137 50 257t136 209t202 139t247 50t246.5 -50t201.5 -139t136.5 -209t50.5 -257z" />
    <glyph glyph-name="macron" unicode="&#xaf;" horiz-adv-x="634" 
d="M573 1096h-512v133h512v-133z" />
    <glyph glyph-name="degree" unicode="&#xb0;" horiz-adv-x="634" 
d="M195 1044q0 -27 10 -51t27.5 -42.5t40 -29t44.5 -10.5q23 0 45.5 10.5t40 29t27.5 43t10 50.5q0 27 -10 51.5t-27.5 43t-40 29t-45.5 10.5t-45 -10.5t-39.5 -29t-27.5 -43t-10 -51.5zM573 1044q0 -53 -19 -100t-54 -82t-82 -54.5t-101 -19.5q-53 0 -100 19.5t-82 54.5
t-54.5 82t-19.5 100t19.5 100.5t54.5 82.5t82 54t100 19t100.5 -19t82.5 -54t54 -82.5t19 -100.5z" />
    <glyph glyph-name="plusminus" unicode="&#xb1;" horiz-adv-x="931" 
d="M379 1024h174v-328h317v-164h-317v-317h317v-174h-809v174h318v317h-318v164h318v328z" />
    <glyph glyph-name="uni00B2" unicode="&#xb2;" horiz-adv-x="532" 
d="M236 983h235v-113h-410v93l226 235q23 23 42 47.5t19 54.5q0 31 -21.5 51.5t-60.5 20.5q-92 0 -92 -92h-113q0 92 56.5 148.5t148.5 56.5t148.5 -53.5t56.5 -131.5q0 -53 -22.5 -84.5t-38.5 -48.5z" />
    <glyph glyph-name="uni00B3" unicode="&#xb3;" horiz-adv-x="552" 
d="M410 1188q23 -12 41 -33q16 -16 28.5 -44t12.5 -67q0 -78 -57.5 -131t-158.5 -53q-100 0 -157.5 56.5t-57.5 148.5h113q0 -39 24.5 -65.5t77.5 -26.5q47 0 70 25.5t23 56.5t-22.5 56.5t-70.5 25.5h-61v102h51q39 0 60.5 19.5t21.5 41.5q0 31 -21.5 51.5t-60.5 20.5
q-82 0 -82 -82h-112q0 86 56 140.5t148 54.5q86 0 140.5 -52.5t54.5 -121.5q0 -35 -10 -58.5t-21 -38.5q-14 -16 -30 -26z" />
    <glyph glyph-name="acute" unicode="&#xb4;" horiz-adv-x="419" 
d="M184 1290h174l-174 -246h-123z" />
    <glyph glyph-name="mu" unicode="&#xb5;" horiz-adv-x="1054" 
d="M932 922v-922h-133l-41 92q-25 -29 -60 -51q-29 -20 -70.5 -35.5t-95.5 -15.5q-53 0 -95 15t-70 36q-35 23 -60 51v-420h-184v1250h184v-533q0 -47 17.5 -88t47 -71.5t68.5 -48t82 -17.5q45 0 86 17.5t72 48t49.5 71.5t18.5 88v533h184z" />
    <glyph glyph-name="paragraph" unicode="&#xb6;" horiz-adv-x="1044" 
d="M901 1290v-1474h-164v1310h-184v-1310h-164v860q-61 0 -116.5 24.5t-98.5 67.5t-67.5 98.5t-24.5 116.5t24.5 116.5t67.5 98.5t98.5 67.5t116.5 24.5h512z" />
    <glyph glyph-name="periodcentered" unicode="&#xb7;" horiz-adv-x="450" 
d="M338 645q0 -47 -33 -80t-80 -33t-79.5 33t-32.5 80t32.5 80t79.5 33t80 -33t33 -80z" />
    <glyph glyph-name="cedilla" unicode="&#xb8;" horiz-adv-x="409" 
d="M225 -82q53 -8 88 -44t35 -89q0 -61 -47 -102t-147 -41q-20 0 -37 1t-29 3q-14 2 -27 6v92q10 -4 25 -6q10 -2 25.5 -3t31.5 -1q47 0 70 19.5t23 41.5q0 23 -23 42.5t-70 19.5q-12 0 -21 -2t-16 -5q-8 -2 -14 -4l64 154h110z" />
    <glyph glyph-name="uni00B9" unicode="&#xb9;" horiz-adv-x="430" 
d="M205 1475h92v-605h-123v451l-72 -41l-61 92z" />
    <glyph glyph-name="ordmasculine" unicode="&#xba;" horiz-adv-x="655" 
d="M471 1024q0 31 -12.5 58.5t-32.5 49t-46 34t-52 12.5q-27 0 -52.5 -12.5t-46 -34t-33 -49t-12.5 -58.5t12.5 -58.5t33 -49t46 -34t52.5 -12.5t52.5 12.5t45.5 34t32.5 49t12.5 58.5zM61 1024q0 57 21.5 107.5t58.5 88t85 59t102 21.5q53 0 101 -21.5t85 -59t58.5 -88
t21.5 -107.5t-21.5 -107.5t-58.5 -88t-85 -59t-101 -21.5t-101.5 21.5t-85.5 59t-58.5 88t-21.5 107.5z" />
    <glyph glyph-name="guillemotright" unicode="&#xbb;" horiz-adv-x="911" 
d="M666 461l-226 327h185l225 -327l-225 -328h-185zM287 461l-226 327h185l225 -327l-225 -328h-185z" />
    <glyph glyph-name="onequarter" unicode="&#xbc;" horiz-adv-x="1146" 
d="M205 1290h92v-604h-123v451l-72 -41l-61 92zM92 0l789 1290h143l-788 -1290h-144zM1014 225h71v-112h-71v-113h-123v113h-256v92l246 399h133v-379zM891 225v195l-123 -195h123z" />
    <glyph glyph-name="onehalf" unicode="&#xbd;" horiz-adv-x="1187" 
d="M205 1290h92v-604h-123v451l-72 -41l-61 92zM891 113h235v-113h-409v92l225 236q23 23 42.5 47t19.5 55t-21.5 51.5t-60.5 20.5q-92 0 -93 -92h-112q0 92 56 148t149 56q92 0 148 -53t56 -131q0 -53 -22.5 -85t-38.5 -48zM92 0l789 1290h143l-788 -1290h-144z" />
    <glyph glyph-name="threequarters" unicode="&#xbe;" horiz-adv-x="1269" 
d="M215 0l789 1290h143l-789 -1290h-143zM1137 225h71v-112h-71v-113h-123v113h-256v92l246 399h133v-379zM1014 225v195l-123 -195h123zM410 1004q23 -12 41 -33q16 -16 28.5 -44t12.5 -67q0 -78 -57.5 -131t-158.5 -53q-100 0 -157.5 56t-57.5 149h113q0 -39 24.5 -66
t77.5 -27q47 0 70 26t23 56q0 31 -22.5 56.5t-70.5 25.5h-61v103h51q39 0 60.5 19.5t21.5 41.5q0 31 -21.5 51.5t-60.5 20.5q-82 0 -82 -82h-112q0 86 56 140t148 54q86 0 140.5 -52t54.5 -122q0 -35 -10 -58.5t-21 -37.5q-14 -16 -30 -26z" />
    <glyph glyph-name="questiondown" unicode="&#xbf;" horiz-adv-x="870" 
d="M72 20q0 72 21.5 121t55 86t71.5 70t72 69.5t55.5 86t21.5 120.5v21h184v-21q0 -92 -21.5 -154.5t-55.5 -106.5t-71.5 -76.5t-71.5 -63.5t-55.5 -65.5t-21.5 -86.5q0 -70 54.5 -122t140.5 -52t140 59.5t54 176.5v20h184v-20q0 -96 -28.5 -174t-79.5 -132.5t-121 -84
t-149 -29.5q-80 0 -150 28.5t-121 78t-79.5 113.5t-28.5 138zM348 819q0 47 33 80t80 33t79.5 -33t32.5 -80t-32.5 -79.5t-79.5 -32.5t-80 32.5t-33 79.5z" />
    <glyph glyph-name="Agrave" unicode="&#xc0;" horiz-adv-x="1146" 
d="M614 1444h-122l-175 246h175zM205 0h-205l492 1290h163l492 -1290h-205l-113 297h-512zM758 481l-185 512l-184 -512h369z" />
    <glyph glyph-name="Aacute" unicode="&#xc1;" horiz-adv-x="1146" 
d="M645 1690h174l-174 -246h-123zM205 0h-205l492 1290h163l492 -1290h-205l-113 297h-512zM758 481l-185 512l-184 -512h369z" />
    <glyph glyph-name="Acircumflex" unicode="&#xc2;" horiz-adv-x="1146" 
d="M840 1434h-164l-103 143l-102 -143h-164l185 245h163zM205 0h-205l492 1290h163l492 -1290h-205l-113 297h-512zM758 481l-185 512l-184 -512h369z" />
    <glyph glyph-name="Atilde" unicode="&#xc3;" horiz-adv-x="1146" 
d="M686 1403q-47 0 -78 19t-54 42q-24 23 -45 42q-22 19 -48 20q-31 0 -57 -30t-25 -83h-103q0 123 55 184q54 61 132 62q45 0 76 -20q31 -19 55 -42q25 -23 45 -42t49 -19q31 0 56 30q26 30 26 83h102q0 -123 -54 -185q-54 -61 -132 -61zM205 0h-205l492 1290h163
l492 -1290h-205l-113 297h-512zM758 481l-185 512l-184 -512h369z" />
    <glyph glyph-name="Adieresis" unicode="&#xc4;" horiz-adv-x="1146" 
d="M512 1546q0 -47 -33 -80t-80 -32q-47 0 -80 32q-33 33 -32 80q0 47 32 80q33 33 80 33t80 -33t33 -80zM860 1546q0 -47 -33 -80t-79 -32q-47 0 -80 32q-33 33 -33 80t33 80t80 33t79 -33q33 -33 33 -80zM205 0h-205l492 1290h163l492 -1290h-205l-113 297h-512zM758 481
l-185 512l-184 -512h369z" />
    <glyph glyph-name="Aring" unicode="&#xc5;" horiz-adv-x="1146" 
d="M645 1567q0 31 -20 56q-20 26 -52 26q-31 0 -51 -26t-20 -56q0 -31 20 -57t51 -25q31 0 52 25q20 26 20 57zM748 1567q0 -70 -49 -122q-48 -52 -126 -52t-126 52t-48 122t48 122t126 52t126 -52q49 -52 49 -122zM205 0h-205l492 1290h163l492 -1290h-205l-113 297h-512z
M758 481l-185 512l-184 -512h369z" />
    <glyph glyph-name="AE" unicode="&#xc6;" horiz-adv-x="1710" 
d="M164 0h-225l747 1290h901v-184h-592v-348h541v-185h-541v-389h613v-184h-809v307h-461zM440 492h359v614h-11z" />
    <glyph glyph-name="Ccedilla" unicode="&#xc7;" horiz-adv-x="1310" 
d="M266 645q0 -104 36 -192t94.5 -152.5t134 -100.5t155.5 -36q74 0 133.5 21.5t104.5 59.5t74.5 88t45.5 107h205q-23 -88 -72 -167.5t-116.5 -141t-152.5 -99.5t-181 -42l-31 -72q53 -8 88 -44t35 -89q0 -61 -47 -102t-147 -41q-20 0 -37 1t-29 3q-14 2 -27 6v92
q10 -4 25 -6q10 -2 25.5 -3t31.5 -1q47 0 70 19.5t23 41.5q0 23 -22.5 42.5t-70.5 19.5q-12 0 -21 -2t-15 -5q-8 -2 -15 -4l62 144q-109 12 -208.5 65.5t-176 139.5t-122.5 200.5t-46 249.5q0 137 50 257t134 209t195.5 139t234.5 50q106 0 198.5 -35.5t163 -97t120 -143.5
t71.5 -174h-205q-16 57 -46 107.5t-74 88t-101 59t-127 21.5q-80 0 -155.5 -35.5t-134 -100t-94.5 -153t-36 -192.5z" />
    <glyph glyph-name="Egrave" unicode="&#xc8;" horiz-adv-x="1126" 
d="M676 1444h-123l-174 246h174zM1024 184v-184h-870v1290h850v-184h-656v-348h604v-185h-604v-389h676z" />
    <glyph glyph-name="Eacute" unicode="&#xc9;" horiz-adv-x="1126" 
d="M635 1690h174l-174 -246h-123zM1024 184v-184h-870v1290h850v-184h-656v-348h604v-185h-604v-389h676z" />
    <glyph glyph-name="Ecircumflex" unicode="&#xca;" horiz-adv-x="1126" 
d="M850 1434h-164l-102 143l-103 -143h-164l185 245h164zM1024 184v-184h-870v1290h850v-184h-656v-348h604v-185h-604v-389h676z" />
    <glyph glyph-name="Edieresis" unicode="&#xcb;" horiz-adv-x="1126" 
d="M522 1546q0 -47 -33 -80t-79 -32q-47 0 -80 32q-33 33 -33 80t33 80t80 33t79 -33q33 -33 33 -80zM870 1546q0 -47 -32 -80q-33 -33 -80 -32q-47 0 -80 32q-33 33 -33 80t33 80t80 33t80 -33q32 -33 32 -80zM1024 184v-184h-870v1290h850v-184h-656v-348h604v-185h-604
v-389h676z" />
    <glyph glyph-name="Igrave" unicode="&#xcc;" horiz-adv-x="501" 
d="M307 1444h-123l-174 246h174zM348 0h-194v1290h194v-1290z" />
    <glyph glyph-name="Iacute" unicode="&#xcd;" horiz-adv-x="501" 
d="M317 1690h175l-175 -246h-122zM348 0h-194v1290h194v-1290z" />
    <glyph glyph-name="Icircumflex" unicode="&#xce;" horiz-adv-x="501" 
d="M512 1434h-164l-102 143l-103 -143h-163l184 245h164zM348 0h-194v1290h194v-1290z" />
    <glyph glyph-name="Idieresis" unicode="&#xcf;" horiz-adv-x="501" 
d="M195 1546q0 -47 -33 -80t-80 -32q-47 0 -80 32q-33 33 -33 80t33 80t80 33t80 -33t33 -80zM543 1546q0 -47 -33 -80t-80 -32q-47 0 -80 32q-33 33 -33 80t33 80t80 33t80 -33t33 -80zM348 0h-194v1290h194v-1290z" />
    <glyph glyph-name="Eth" unicode="&#xd0;" horiz-adv-x="1300" 
d="M215 0v543h-174v184h174v563h389q123 0 234.5 -50t195.5 -138t134.5 -205t50.5 -252t-50.5 -252t-134.5 -205t-195.5 -138t-234.5 -50h-389zM604 184q80 0 156 35t134 96.5t94 145.5t36 184t-36 184t-94 145.5t-134 96.5t-156 35h-194v-379h245v-184h-245v-359h194z" />
    <glyph glyph-name="Ntilde" unicode="&#xd1;" horiz-adv-x="1290" 
d="M768 1423q-47 0 -78 20q-31 19 -54 42q-24 23 -45 42q-22 19 -48 19q-31 0 -57 -29q-26 -30 -25 -83h-103q0 123 55 184q54 61 132 61q45 0 76 -19t55 -42q25 -23 45 -42t49 -20q31 0 56 30q26 30 26 83h102q0 -123 -54 -184q-54 -62 -132 -62zM1137 1290v-1290h-164
l-625 922v-922h-194v1290h163l625 -921v921h195z" />
    <glyph glyph-name="Ograve" unicode="&#xd2;" horiz-adv-x="1372" 
d="M748 1444h-123l-174 246h174zM1106 645q0 104 -36 193q-36 88 -94 152q-58 65 -134 101t-156 35q-80 0 -156 -35q-76 -36 -134 -101t-94 -152q-36 -88 -36 -193q0 -104 36 -192t94 -153t134 -100q76 -36 156 -36t156 36t134 100q58 65 94 153t36 192zM1300 645
q0 -139 -50 -258t-134 -208t-195 -139q-112 -50 -235 -50t-234 50q-112 50 -196 139t-134 208t-50 258q0 137 50 257t134 209t196 139t234 50q123 0 235 -50t195 -139q84 -89 134 -209t50 -257z" />
    <glyph glyph-name="Oacute" unicode="&#xd3;" horiz-adv-x="1372" 
d="M748 1690h174l-174 -246h-123zM1106 645q0 104 -36 193q-36 88 -94 152q-58 65 -134 101t-156 35q-80 0 -156 -35q-76 -36 -134 -101t-94 -152q-36 -88 -36 -193q0 -104 36 -192t94 -153t134 -100q76 -36 156 -36t156 36t134 100q58 65 94 153t36 192zM1300 645
q0 -139 -50 -258t-134 -208t-195 -139q-112 -50 -235 -50t-234 50q-112 50 -196 139t-134 208t-50 258q0 137 50 257t134 209t196 139t234 50q123 0 235 -50t195 -139q84 -89 134 -209t50 -257z" />
    <glyph glyph-name="Ocircumflex" unicode="&#xd4;" horiz-adv-x="1372" 
d="M952 1434h-164l-102 143l-102 -143h-164l184 245h164zM1106 645q0 104 -36 193q-36 88 -94 152q-58 65 -134 101t-156 35q-80 0 -156 -35q-76 -36 -134 -101t-94 -152q-36 -88 -36 -193q0 -104 36 -192t94 -153t134 -100q76 -36 156 -36t156 36t134 100q58 65 94 153
t36 192zM1300 645q0 -139 -50 -258t-134 -208t-195 -139q-112 -50 -235 -50t-234 50q-112 50 -196 139t-134 208t-50 258q0 137 50 257t134 209t196 139t234 50q123 0 235 -50t195 -139q84 -89 134 -209t50 -257z" />
    <glyph glyph-name="Otilde" unicode="&#xd5;" horiz-adv-x="1372" 
d="M809 1423q-47 0 -78 20q-31 19 -54 42q-24 23 -45 42q-22 19 -48 19q-31 0 -57 -29q-26 -30 -25 -83h-103q0 123 55 184q54 61 132 61q45 0 76 -19t55 -42q25 -23 45 -42t49 -20q31 0 56 30q26 30 26 83h102q0 -123 -54 -184q-54 -62 -132 -62zM1106 645q0 104 -36 193
q-36 88 -94 152q-58 65 -134 101t-156 35q-80 0 -156 -35q-76 -36 -134 -101t-94 -152q-36 -88 -36 -193q0 -104 36 -192t94 -153t134 -100q76 -36 156 -36t156 36t134 100q58 65 94 153t36 192zM1300 645q0 -139 -50 -258t-134 -208t-195 -139q-112 -50 -235 -50t-234 50
q-112 50 -196 139t-134 208t-50 258q0 137 50 257t134 209t196 139t234 50q123 0 235 -50t195 -139q84 -89 134 -209t50 -257z" />
    <glyph glyph-name="Odieresis" unicode="&#xd6;" horiz-adv-x="1372" 
d="M625 1546q0 -47 -33 -80t-80 -32q-47 0 -80 32q-33 33 -33 80t33 80t80 33t80 -33t33 -80zM973 1546q0 -47 -33 -80t-80 -32q-47 0 -80 32q-33 33 -32 80q0 47 32 80q33 33 80 33t80 -33t33 -80zM1106 645q0 104 -36 193q-36 88 -94 152q-58 65 -134 101t-156 35
q-80 0 -156 -35q-76 -36 -134 -101t-94 -152q-36 -88 -36 -193q0 -104 36 -192t94 -153t134 -100q76 -36 156 -36t156 36t134 100q58 65 94 153t36 192zM1300 645q0 -139 -50 -258t-134 -208t-195 -139q-112 -50 -235 -50t-234 50q-112 50 -196 139t-134 208t-50 258
q0 137 50 257t134 209t196 139t234 50q123 0 235 -50t195 -139q84 -89 134 -209t50 -257z" />
    <glyph glyph-name="multiply" unicode="&#xd7;" horiz-adv-x="921" 
d="M809 276l-113 -102l-235 246l-236 -246l-112 102l235 246l-235 246l112 102l236 -245l235 245l113 -102l-236 -246z" />
    <glyph glyph-name="Oslash" unicode="&#xd8;" horiz-adv-x="1392" 
d="M696 1300q92 0 165 -24.5t126 -52.5q61 -35 109 -76l133 123l123 -123l-144 -133q29 -45 52 -101q18 -47 34.5 -114.5t16.5 -153.5q0 -139 -50.5 -258t-134.5 -208t-195.5 -139t-234.5 -50q-92 0 -165.5 23.5t-127.5 52.5q-61 35 -106 77l-133 -123l-123 123l143 133
q-29 45 -51 101q-20 47 -35.5 114.5t-15.5 153.5q0 137 50 257t134 209t195.5 139t234.5 50zM963 1014q-33 31 -72 55q-35 23 -84 40t-111 17q-80 0 -155.5 -35.5t-134 -100t-94.5 -152.5t-36 -193q0 -51 9.5 -93t21.5 -75q12 -37 31 -67zM696 164q80 0 156 36t134 100.5
t94 152.5t36 192q0 49 -10 92t-21 76q-14 37 -30 68l-625 -605q31 -33 72 -57q35 -23 84 -39t110 -16z" />
    <glyph glyph-name="Ugrave" unicode="&#xd9;" horiz-adv-x="1228" 
d="M707 1444h-123l-174 246h174zM614 164q61 0 114 22q52 23 91 63t61 96t21 126v819h195v-819q0 -104 -36 -192t-101 -153t-152 -100q-88 -36 -193 -36q-104 0 -192 36t-153 100q-65 65 -100 153q-36 88 -36 192v819h195v-819q0 -70 21 -126q22 -56 61 -96t91 -63
q52 -22 113 -22z" />
    <glyph glyph-name="Uacute" unicode="&#xda;" horiz-adv-x="1228" 
d="M666 1690h174l-174 -246h-123zM614 164q61 0 114 22q52 23 91 63t61 96t21 126v819h195v-819q0 -104 -36 -192t-101 -153t-152 -100q-88 -36 -193 -36q-104 0 -192 36t-153 100q-65 65 -100 153q-36 88 -36 192v819h195v-819q0 -70 21 -126q22 -56 61 -96t91 -63
q52 -22 113 -22z" />
    <glyph glyph-name="Ucircumflex" unicode="&#xdb;" horiz-adv-x="1228" 
d="M881 1434h-164l-103 143l-102 -143h-164l184 245h164zM614 164q61 0 114 22q52 23 91 63t61 96t21 126v819h195v-819q0 -104 -36 -192t-101 -153t-152 -100q-88 -36 -193 -36q-104 0 -192 36t-153 100q-65 65 -100 153q-36 88 -36 192v819h195v-819q0 -70 21 -126
q22 -56 61 -96t91 -63q52 -22 113 -22z" />
    <glyph glyph-name="Udieresis" unicode="&#xdc;" horiz-adv-x="1228" 
d="M553 1546q0 -47 -33 -80t-80 -32q-47 0 -80 32q-33 33 -32 80q0 47 32 80q33 33 80 33t80 -33t33 -80zM901 1546q0 -47 -33 -80t-80 -32q-47 0 -79 32q-33 33 -33 80t33 80t79 33q47 0 80 -33t33 -80zM614 164q61 0 114 22q52 23 91 63t61 96t21 126v819h195v-819
q0 -104 -36 -192t-101 -153t-152 -100q-88 -36 -193 -36q-104 0 -192 36t-153 100q-65 65 -100 153q-36 88 -36 192v819h195v-819q0 -70 21 -126q22 -56 61 -96t91 -63q52 -22 113 -22z" />
    <glyph glyph-name="Yacute" unicode="&#xdd;" horiz-adv-x="1054" 
d="M594 1690h174l-174 -246h-123zM532 707l297 583h205l-409 -788v-502h-195v502l-410 788h205l297 -583h10z" />
    <glyph glyph-name="Thorn" unicode="&#xde;" horiz-adv-x="1218" 
d="M348 1075h379q84 0 159 -31.5t130 -87t88 -128t33 -152.5t-33 -152.5t-88 -128t-130 -87.5t-159 -32h-379v-276h-194v1290h194v-215zM727 461q43 0 82 17.5t68.5 47t47 68.5t17.5 82t-17.5 82t-47 68.5t-68.5 47t-82 17.5h-379v-430h379z" />
    <glyph glyph-name="germandbls" unicode="&#xdf;" horiz-adv-x="1054" 
d="M778 696q57 -29 103 -75q39 -41 70.5 -102.5t31.5 -149.5q0 -78 -28.5 -144.5t-79 -117t-118 -79t-143.5 -28.5h-102v174h102q78 0 131.5 54.5t53.5 140.5t-53.5 140t-131.5 54h-102v185q86 0 140.5 53t54.5 131q0 86 -54.5 140t-140.5 54q-39 0 -74 -16t-61.5 -43
t-43 -61.5t-16.5 -73.5v-932h-184v932q0 74 31 140.5t82 116.5t119.5 80.5t146.5 30.5q80 0 149.5 -28.5t121 -77.5t80 -113.5t28.5 -138.5q0 -59 -17.5 -103t-39.5 -77q-25 -37 -56 -66z" />
    <glyph glyph-name="agrave" unicode="&#xe0;" horiz-adv-x="952" 
d="M563 1073h-123l-174 246h174zM481 932q80 0 147 -26t113 -69q47 -44 73 -104q26 -59 26 -129v-604h-133l-41 92q-27 -29 -64 -51q-33 -20 -83 -36q-50 -15 -120 -15q-154 0 -235 77q-82 77 -82 199q0 70 27 126t91 96q65 40 175 63q111 23 280 22v31q0 70 -44 112
t-130 42q-92 0 -134 -33t-50 -80h-184q8 123 103 205t265 82zM410 154q117 0 181 60q65 60 64 146v50q-123 0 -198 -12q-76 -11 -119 -30t-57 -49q-14 -29 -15 -63q0 -39 37 -71q37 -31 107 -31z" />
    <glyph glyph-name="aacute" unicode="&#xe1;" horiz-adv-x="952" 
d="M543 1319h174l-174 -246h-123zM481 932q80 0 147 -26t113 -69q47 -44 73 -104q26 -59 26 -129v-604h-133l-41 92q-27 -29 -64 -51q-33 -20 -83 -36q-50 -15 -120 -15q-154 0 -235 77q-82 77 -82 199q0 70 27 126t91 96q65 40 175 63q111 23 280 22v31q0 70 -44 112
t-130 42q-92 0 -134 -33t-50 -80h-184q8 123 103 205t265 82zM410 154q117 0 181 60q65 60 64 146v50q-123 0 -198 -12q-76 -11 -119 -30t-57 -49q-14 -29 -15 -63q0 -39 37 -71q37 -31 107 -31z" />
    <glyph glyph-name="acircumflex" unicode="&#xe2;" horiz-adv-x="952" 
d="M748 1065h-164l-103 143l-102 -143h-164l184 246h164zM481 932q80 0 147 -26t113 -69q47 -44 73 -104q26 -59 26 -129v-604h-133l-41 92q-27 -29 -64 -51q-33 -20 -83 -36q-50 -15 -120 -15q-154 0 -235 77q-82 77 -82 199q0 70 27 126t91 96q65 40 175 63q111 23 280 22
v31q0 70 -44 112t-130 42q-92 0 -134 -33t-50 -80h-184q8 123 103 205t265 82zM410 154q117 0 181 60q65 60 64 146v50q-123 0 -198 -12q-76 -11 -119 -30t-57 -49q-14 -29 -15 -63q0 -39 37 -71q37 -31 107 -31z" />
    <glyph glyph-name="atilde" unicode="&#xe3;" horiz-adv-x="952" 
d="M594 1034q-47 0 -78 20q-31 19 -54 42q-24 23 -45 42q-22 19 -48 19q-31 0 -57 -30t-25 -83h-103q0 123 55 185q54 61 132 61q45 0 75 -19q31 -19 56 -42t45 -42t49 -20q31 0 56 30q26 30 26 83h102q0 -123 -54 -184q-54 -62 -132 -62zM481 932q80 0 147 -26t113 -69
q47 -44 73 -104q26 -59 26 -129v-604h-133l-41 92q-27 -29 -64 -51q-33 -20 -83 -36q-50 -15 -120 -15q-154 0 -235 77q-82 77 -82 199q0 70 27 126t91 96q65 40 175 63q111 23 280 22v31q0 70 -44 112t-130 42q-92 0 -134 -33t-50 -80h-184q8 123 103 205t265 82zM410 154
q117 0 181 60q65 60 64 146v50q-123 0 -198 -12q-76 -11 -119 -30t-57 -49q-14 -29 -15 -63q0 -39 37 -71q37 -31 107 -31z" />
    <glyph glyph-name="adieresis" unicode="&#xe4;" horiz-adv-x="952" 
d="M420 1178q0 -47 -33 -80t-80 -33t-80 33t-32 80q0 47 32 79q33 33 80 33t80 -33q33 -32 33 -79zM768 1178q0 -47 -33 -80t-80 -33t-80 33t-32 80q0 47 32 79q33 33 80 33t80 -33q33 -32 33 -79zM481 932q80 0 147 -26t113 -69q47 -44 73 -104q26 -59 26 -129v-604h-133
l-41 92q-27 -29 -64 -51q-33 -20 -83 -36q-50 -15 -120 -15q-154 0 -235 77q-82 77 -82 199q0 70 27 126t91 96q65 40 175 63q111 23 280 22v31q0 70 -44 112t-130 42q-92 0 -134 -33t-50 -80h-184q8 123 103 205t265 82zM410 154q117 0 181 60q65 60 64 146v50
q-123 0 -198 -12q-76 -11 -119 -30t-57 -49q-14 -29 -15 -63q0 -39 37 -71q37 -31 107 -31z" />
    <glyph glyph-name="aring" unicode="&#xe5;" horiz-adv-x="952" 
d="M563 1206q0 31 -20 57t-51 25q-31 0 -52 -25q-20 -26 -20 -57t20 -56q20 -26 52 -26q31 0 51 26q20 25 20 56zM666 1206q0 -70 -49 -122q-48 -52 -125 -52q-78 0 -126 52t-49 122q0 70 49 122q48 52 126 52t125 -52q49 -52 49 -122zM481 932q80 0 147 -26t113 -69
q47 -44 73 -104q26 -59 26 -129v-604h-133l-41 92q-27 -29 -64 -51q-33 -20 -83 -36q-50 -15 -120 -15q-154 0 -235 77q-82 77 -82 199q0 70 27 126t91 96q65 40 175 63q111 23 280 22v31q0 70 -44 112t-130 42q-92 0 -134 -33t-50 -80h-184q8 123 103 205t265 82zM410 154
q117 0 181 60q65 60 64 146v50q-123 0 -198 -12q-76 -11 -119 -30t-57 -49q-14 -29 -15 -63q0 -39 37 -71q37 -31 107 -31z" />
    <glyph glyph-name="ae" unicode="&#xe6;" horiz-adv-x="1536" 
d="M1454 266q-23 -57 -57.5 -107t-82.5 -88t-110.5 -59.5t-138.5 -21.5q-74 0 -130 23.5t-97 52.5q-47 35 -80 77q-35 -43 -84 -77q-43 -29 -105.5 -52.5t-148.5 -23.5q-170 0 -254 76.5t-84 199.5q0 61 26.5 113.5t91 91.5t175 60.5t280.5 21.5v51q0 70 -44 112t-130 42
q-92 0 -134 -33t-50 -80h-184q8 123 103 205t265 82q72 0 124 -24.5t87 -53.5q39 -35 66 -76q35 41 80 76q39 29 93 53.5t124 24.5q80 0 154.5 -35t131 -97.5t90 -148.5t33.5 -190q0 -10 -2 -23.5t-4 -23.5q-2 -12 -4 -25h-627q4 -47 24.5 -88t52.5 -71.5t73 -48t88 -17.5
q74 0 123 36t72 66h194zM1055 758q-43 0 -82 -17.5t-70 -47t-50 -68.5t-24 -82h461q-16 92 -79.5 153.5t-155.5 61.5zM410 154q117 0 181 60t64 146v29q-123 0 -198.5 -10t-118.5 -28.5t-57.5 -43t-14.5 -51.5q0 -39 37 -70.5t107 -31.5z" />
    <glyph glyph-name="ccedilla" unicode="&#xe7;" horiz-adv-x="983" 
d="M922 338q-31 -139 -125.5 -232.5t-233.5 -115.5l-31 -72q53 -8 88 -44t35 -89q0 -61 -47 -102t-147 -41q-20 0 -36.5 1t-29.5 3q-14 2 -26 6v92q10 -4 24 -6q10 -2 25.5 -3t32.5 -1q47 0 69.5 19.5t22.5 41.5q0 23 -22.5 42.5t-69.5 19.5q-12 0 -21.5 -2t-15.5 -5
q-8 -2 -15 -4l62 144q-78 8 -147.5 45t-124 98.5t-86 144t-31.5 183.5q0 104 33.5 190t94 148.5t140.5 97.5t172 35q80 0 148.5 -26.5t122 -74t88 -111t51.5 -136.5h-195q-23 78 -76 126t-139 48q-49 0 -96 -21.5t-82 -61.5t-56.5 -94.5t-21.5 -119.5q0 -66 21.5 -120
t56.5 -94t82 -61.5t96 -21.5q86 0 139.5 48t75.5 126h195z" />
    <glyph glyph-name="egrave" unicode="&#xe8;" horiz-adv-x="1013" 
d="M573 1073h-122l-175 246h175zM922 266q-23 -57 -58 -107t-84 -88t-113 -60q-65 -22 -145 -21q-92 0 -172 35t-140 97t-94 148t-34 191q0 104 34 190t92 149q58 62 137 97t167 35t167 -35t137 -97t92 -149q34 -86 34 -190q0 -16 -2 -32q-2 -15 -4 -26q-2 -14 -4 -24h-656
q4 -43 25 -82q20 -39 52 -69t76 -47t93 -17q84 0 133 36t72 66h195zM512 758q-92 0 -156 -63q-63 -62 -80 -163h492q-16 100 -82 163q-65 63 -174 63z" />
    <glyph glyph-name="eacute" unicode="&#xe9;" horiz-adv-x="1013" 
d="M573 1319h175l-175 -246h-122zM922 266q-23 -57 -58 -107t-84 -88t-113 -60q-65 -22 -145 -21q-92 0 -172 35t-140 97t-94 148t-34 191q0 104 34 190t92 149q58 62 137 97t167 35t167 -35t137 -97t92 -149q34 -86 34 -190q0 -16 -2 -32q-2 -15 -4 -26q-2 -14 -4 -24h-656
q4 -43 25 -82q20 -39 52 -69t76 -47t93 -17q84 0 133 36t72 66h195zM512 758q-92 0 -156 -63q-63 -62 -80 -163h492q-16 100 -82 163q-65 63 -174 63z" />
    <glyph glyph-name="ecircumflex" unicode="&#xea;" horiz-adv-x="1013" 
d="M778 1065h-164l-102 143l-102 -143h-164l184 246h164zM922 266q-23 -57 -58 -107t-84 -88t-113 -60q-65 -22 -145 -21q-92 0 -172 35t-140 97t-94 148t-34 191q0 104 34 190t92 149q58 62 137 97t167 35t167 -35t137 -97t92 -149q34 -86 34 -190q0 -16 -2 -32
q-2 -15 -4 -26q-2 -14 -4 -24h-656q4 -43 25 -82q20 -39 52 -69t76 -47t93 -17q84 0 133 36t72 66h195zM512 758q-92 0 -156 -63q-63 -62 -80 -163h492q-16 100 -82 163q-65 63 -174 63z" />
    <glyph glyph-name="edieresis" unicode="&#xeb;" horiz-adv-x="1013" 
d="M451 1178q0 -47 -33 -80t-80 -33t-80 33t-33 80t33 79q33 33 80 33t80 -33q33 -32 33 -79zM799 1178q0 -47 -33 -80t-80 -33t-80 33t-33 80t33 79q33 33 80 33t80 -33q33 -32 33 -79zM922 266q-23 -57 -58 -107t-84 -88t-113 -60q-65 -22 -145 -21q-92 0 -172 35t-140 97
t-94 148t-34 191q0 104 34 190t92 149q58 62 137 97t167 35t167 -35t137 -97t92 -149q34 -86 34 -190q0 -16 -2 -32q-2 -15 -4 -26q-2 -14 -4 -24h-656q4 -43 25 -82q20 -39 52 -69t76 -47t93 -17q84 0 133 36t72 66h195zM512 758q-92 0 -156 -63q-63 -62 -80 -163h492
q-16 100 -82 163q-65 63 -174 63z" />
    <glyph glyph-name="igrave" unicode="&#xec;" horiz-adv-x="430" 
d="M287 1065h-123l-174 246h174zM307 0h-184v922h184v-922z" />
    <glyph glyph-name="iacute" unicode="&#xed;" horiz-adv-x="430" 
d="M276 1311h175l-175 -246h-122zM307 0h-184v922h184v-922z" />
    <glyph glyph-name="icircumflex" unicode="&#xee;" horiz-adv-x="430" 
d="M481 1065h-164l-102 143l-102 -143h-164l184 246h164zM307 0h-184v922h184v-922z" />
    <glyph glyph-name="idieresis" unicode="&#xef;" horiz-adv-x="430" 
d="M154 1178q0 -47 -33 -80t-80 -33t-80 33t-33 80t33 79q33 33 80 33t80 -33q33 -32 33 -79zM502 1178q0 -47 -33 -80t-80 -33t-80 33t-33 80t33 79q33 33 80 33t80 -33q33 -32 33 -79zM307 0h-184v922h184v-922z" />
    <glyph glyph-name="eth" unicode="&#xf0;" horiz-adv-x="1064" 
d="M727 1188q72 -72 127 -172q47 -86 88 -212t41 -292q0 -123 -35 -220t-96 -164t-145 -102.5t-185 -35.5q-96 0 -178 34.5t-142.5 95t-95 142.5t-34.5 178t33.5 178t92 142.5t137.5 95.5t167 35q78 0 131 -22.5t88 -49.5q39 -33 67 -71q-12 78 -41.5 140t-62.5 109
q-37 53 -80 99l-184 -123l-82 123l143 92q-35 23 -71.5 38t-65.5 25q-35 10 -68 19l52 143q49 -16 100 -37q43 -16 93 -40.5t93 -55.5l174 123l82 -123zM522 164q53 0 101.5 21.5t85 59.5t58 88t21.5 107t-21.5 107.5t-58 88.5t-85 59.5t-101.5 21.5t-101 -21.5t-85 -59.5
t-58.5 -88t-21.5 -108q0 -57 21.5 -107t58.5 -88t85 -59.5t101 -21.5z" />
    <glyph glyph-name="ntilde" unicode="&#xf1;" horiz-adv-x="1044" 
d="M655 1055q-47 0 -77 19q-31 19 -55 42t-45 42q-22 19 -48 20q-31 0 -56 -30q-26 -30 -26 -83h-102q0 123 54 184t132 62q45 0 76 -20q31 -19 55 -42q25 -23 45 -42t49 -19q31 0 57 30t25 82h103q0 -123 -55 -184q-54 -61 -132 -61zM563 932q76 0 144 -30t117 -82
q50 -52 79 -126t29 -162v-532h-184v532q0 45 -18 86q-17 41 -47 72t-69 49t-82 19q-47 0 -88 -19q-41 -18 -71 -49q-31 -31 -48 -72t-18 -86v-532h-184v922h133l41 -93q27 29 63 52q33 18 83 34q50 17 120 17z" />
    <glyph glyph-name="ograve" unicode="&#xf2;" 
d="M584 1065h-123l-174 246h174zM768 461q0 66 -22 120t-56 94q-35 40 -82 61q-47 22 -96 22t-96 -22t-82 -61q-35 -40 -56 -94q-22 -54 -22 -120t22 -120t56 -94q35 -40 82 -62t96 -21q49 0 96 21q47 22 82 62t56 94q22 54 22 120zM952 461q0 -104 -33 -191
q-34 -86 -95 -148q-60 -62 -140 -97t-172 -35t-172 35t-140 97t-95 148q-34 86 -33 191q0 104 33 190q34 86 95 149q60 62 140 97t172 35t172 -35t140 -97t95 -149q33 -86 33 -190z" />
    <glyph glyph-name="oacute" unicode="&#xf3;" 
d="M584 1311h174l-174 -246h-123zM768 461q0 66 -22 120t-56 94q-35 40 -82 61q-47 22 -96 22t-96 -22t-82 -61q-35 -40 -56 -94q-22 -54 -22 -120t22 -120t56 -94q35 -40 82 -62t96 -21q49 0 96 21q47 22 82 62t56 94q22 54 22 120zM952 461q0 -104 -33 -191
q-34 -86 -95 -148q-60 -62 -140 -97t-172 -35t-172 35t-140 97t-95 148q-34 86 -33 191q0 104 33 190q34 86 95 149q60 62 140 97t172 35t172 -35t140 -97t95 -149q33 -86 33 -190z" />
    <glyph glyph-name="ocircumflex" unicode="&#xf4;" 
d="M778 1065h-164l-102 143l-102 -143h-164l184 246h164zM768 461q0 66 -22 120t-56 94q-35 40 -82 61q-47 22 -96 22t-96 -22t-82 -61q-35 -40 -56 -94q-22 -54 -22 -120t22 -120t56 -94q35 -40 82 -62t96 -21q49 0 96 21q47 22 82 62t56 94q22 54 22 120zM952 461
q0 -104 -33 -191q-34 -86 -95 -148q-60 -62 -140 -97t-172 -35t-172 35t-140 97t-95 148q-34 86 -33 191q0 104 33 190q34 86 95 149q60 62 140 97t172 35t172 -35t140 -97t95 -149q33 -86 33 -190z" />
    <glyph glyph-name="otilde" unicode="&#xf5;" 
d="M625 1044q-47 0 -78 20q-31 19 -54 42q-24 23 -46 42t-48 19q-31 0 -56 -29q-26 -30 -26 -83h-102q0 123 54 184t132 61q45 0 76 -19t55 -42q25 -23 46 -42q20 -19 49 -19q31 0 56 29q26 30 26 83h102q0 -123 -54 -184q-54 -62 -132 -62zM768 461q0 66 -22 120t-56 94
q-35 40 -82 61q-47 22 -96 22t-96 -22t-82 -61q-35 -40 -56 -94q-22 -54 -22 -120t22 -120t56 -94q35 -40 82 -62t96 -21q49 0 96 21q47 22 82 62t56 94q22 54 22 120zM952 461q0 -104 -33 -191q-34 -86 -95 -148q-60 -62 -140 -97t-172 -35t-172 35t-140 97t-95 148
q-34 86 -33 191q0 104 33 190q34 86 95 149q60 62 140 97t172 35t172 -35t140 -97t95 -149q33 -86 33 -190z" />
    <glyph glyph-name="odieresis" unicode="&#xf6;" 
d="M451 1178q0 -47 -33 -80t-80 -33t-80 33t-33 80t33 79q33 33 80 33t80 -33q33 -32 33 -79zM799 1178q0 -47 -33 -80t-80 -33t-80 33t-33 80t33 79q33 33 80 33t80 -33q33 -32 33 -79zM768 461q0 66 -22 120t-56 94q-35 40 -82 61q-47 22 -96 22t-96 -22t-82 -61
q-35 -40 -56 -94q-22 -54 -22 -120t22 -120t56 -94q35 -40 82 -62t96 -21q49 0 96 21q47 22 82 62t56 94q22 54 22 120zM952 461q0 -104 -33 -191q-34 -86 -95 -148q-60 -62 -140 -97t-172 -35t-172 35t-140 97t-95 148q-34 86 -33 191q0 104 33 190q34 86 95 149
q60 62 140 97t172 35t172 -35t140 -97t95 -149q33 -86 33 -190z" />
    <glyph glyph-name="divide" unicode="&#xf7;" horiz-adv-x="921" 
d="M850 440h-778v164h778v-164zM573 860q0 -47 -32.5 -79.5t-79.5 -32.5t-80 32.5t-33 79.5t33 80t80 33t79.5 -33t32.5 -80zM573 184q0 -47 -32.5 -79.5t-79.5 -32.5t-80 32.5t-33 79.5t33 80t80 33t79.5 -33t32.5 -80z" />
    <glyph glyph-name="oslash" unicode="&#xf8;" horiz-adv-x="1064" 
d="M532 932q66 0 119.5 -16.5t89.5 -34.5q43 -23 78 -52l103 93l102 -113l-113 -102q16 -33 31 -70q10 -33 20.5 -77t10.5 -97q0 -104 -34 -191.5t-94.5 -150t-140 -97t-172.5 -34.5q-66 0 -119 15t-89 36q-43 23 -78 51l-103 -92l-102 113l113 102q-18 33 -31 70
q-12 33 -21.5 78t-9.5 98q0 104 34 190t94.5 148.5t140 97.5t171.5 35zM686 707q-20 16 -43 26q-20 10 -48 17.5t-63 7.5q-51 0 -97 -21.5t-82 -61.5t-56.5 -94.5t-20.5 -119.5q0 -47 11 -84q4 -20 10 -39zM379 215q20 -16 43 -27q20 -10 48 -18t62 -6q51 0 97.5 21.5
t81 61.5t56 95t21.5 121q0 23 -3 45t-7 39q-6 20 -10 37z" />
    <glyph glyph-name="ugrave" unicode="&#xf9;" horiz-adv-x="1054" 
d="M625 1073h-123l-174 246h174zM492 -10q-78 0 -145 29q-67 30 -117 82t-78 126q-29 74 -29 162v533h184v-533q0 -47 18 -88q17 -41 47 -72t68 -48q39 -17 82 -17q45 0 86 17t72 48t49 72t19 88v533h184v-922h-133l-41 92q-27 -29 -64 -51q-33 -20 -83 -36
q-49 -15 -119 -15z" />
    <glyph glyph-name="uacute" unicode="&#xfa;" horiz-adv-x="1054" 
d="M584 1321h174l-174 -246h-123zM492 -10q-78 0 -145 29q-67 30 -117 82t-78 126q-29 74 -29 162v533h184v-533q0 -47 18 -88q17 -41 47 -72t68 -48q39 -17 82 -17q45 0 86 17t72 48t49 72t19 88v533h184v-922h-133l-41 92q-27 -29 -64 -51q-33 -20 -83 -36
q-49 -15 -119 -15z" />
    <glyph glyph-name="ucircumflex" unicode="&#xfb;" horiz-adv-x="1054" 
d="M788 1065h-163l-103 143l-102 -143h-164l184 246h164zM492 -10q-78 0 -145 29q-67 30 -117 82t-78 126q-29 74 -29 162v533h184v-533q0 -47 18 -88q17 -41 47 -72t68 -48q39 -17 82 -17q45 0 86 17t72 48t49 72t19 88v533h184v-922h-133l-41 92q-27 -29 -64 -51
q-33 -20 -83 -36q-49 -15 -119 -15z" />
    <glyph glyph-name="udieresis" unicode="&#xfc;" horiz-adv-x="1054" 
d="M471 1178q0 -47 -33 -80t-80 -33t-79 33q-33 33 -33 80t33 79q33 33 79 33q47 0 80 -33q33 -32 33 -79zM819 1178q0 -47 -33 -80t-79 -33q-47 0 -80 33t-33 80t33 79q33 33 80 33t79 -33q33 -32 33 -79zM492 -10q-78 0 -145 29q-67 30 -117 82t-78 126q-29 74 -29 162
v533h184v-533q0 -47 18 -88q17 -41 47 -72t68 -48q39 -17 82 -17q45 0 86 17t72 48t49 72t19 88v533h184v-922h-133l-41 92q-27 -29 -64 -51q-33 -20 -83 -36q-49 -15 -119 -15z" />
    <glyph glyph-name="yacute" unicode="&#xfd;" horiz-adv-x="942" 
d="M532 1319h175l-175 -246h-122zM20 922h195l256 -666l256 666h195l-390 -983q-31 -78 -60 -130q-30 -52 -64 -85q-35 -33 -77 -48q-42 -14 -95 -14q-12 0 -23 1q-10 1 -20 3t-19 6v154q78 0 118 33t56 80l31 92z" />
    <glyph glyph-name="thorn" unicode="&#xfe;" horiz-adv-x="1085" 
d="M573 932q92 0 172 -35t140.5 -97.5t94.5 -148.5t34 -190t-34 -190.5t-94.5 -149t-140 -97t-172.5 -34.5q-66 0 -112.5 15t-79.5 36q-37 23 -64 51v-420h-184v1618h184v-471q29 31 66 55q33 23 81 40.5t109 17.5zM563 164q53 0 101.5 21.5t85 61.5t58 94t21.5 120
t-21.5 120t-58 94t-85 61.5t-101.5 21.5t-101 -21.5t-85 -61.5t-58.5 -94.5t-21.5 -119.5q0 -66 21.5 -120t58.5 -94t85 -61.5t101 -21.5z" />
    <glyph glyph-name="ydieresis" unicode="&#xff;" horiz-adv-x="942" 
d="M410 1178q0 -47 -33 -80t-80 -33t-80 33t-33 80t33 79q33 33 80 33t80 -33q33 -32 33 -79zM758 1178q0 -47 -33 -80t-80 -33t-80 33t-33 80t33 79q33 33 80 33t80 -33q33 -32 33 -79zM20 922h195l256 -666l256 666h195l-390 -983q-31 -78 -60 -130q-30 -52 -64 -85
q-35 -33 -77 -48q-42 -14 -95 -14q-12 0 -23 1q-10 1 -20 3t-19 6v154q78 0 118 33t56 80l31 92z" />
    <glyph glyph-name="Amacron" unicode="&#x100;" horiz-adv-x="1146" 
d="M829 1454h-512v133h512v-133zM205 0h-205l492 1290h163l492 -1290h-205l-113 297h-512zM758 481l-185 512l-184 -512h369z" />
    <glyph glyph-name="amacron" unicode="&#x101;" horiz-adv-x="952" 
d="M748 1106h-512v133h512v-133zM481 932q80 0 147 -26t113 -69q47 -44 73 -104q26 -59 26 -129v-604h-133l-41 92q-27 -29 -64 -51q-33 -20 -83 -36q-50 -15 -120 -15q-154 0 -235 77q-82 77 -82 199q0 70 27 126t91 96q65 40 175 63q111 23 280 22v31q0 70 -44 112
t-130 42q-92 0 -134 -33t-50 -80h-184q8 123 103 205t265 82zM410 154q117 0 181 60q65 60 64 146v50q-123 0 -198 -12q-76 -11 -119 -30t-57 -49q-14 -29 -15 -63q0 -39 37 -71q37 -31 107 -31z" />
    <glyph glyph-name="Abreve" unicode="&#x102;" horiz-adv-x="1146" 
d="M573 1556q47 0 81 32t42 71h144q-16 -100 -87 -168t-180 -68t-179 68q-71 68 -87 168h144q8 -39 42 -71q33 -32 80 -32zM205 0h-205l492 1290h163l492 -1290h-205l-113 297h-512zM758 481l-185 512l-184 -512h369z" />
    <glyph glyph-name="abreve" unicode="&#x103;" horiz-adv-x="952" 
d="M483 1188q47 0 81 32t42 70h144q-16 -100 -87 -168t-180 -67q-109 0 -179 67q-71 68 -87 168h143q8 -39 42 -70q34 -32 81 -32zM481 932q80 0 147 -26t113 -69q47 -44 73 -104q26 -59 26 -129v-604h-133l-41 92q-27 -29 -64 -51q-33 -20 -83 -36q-50 -15 -120 -15
q-154 0 -235 77q-82 77 -82 199q0 70 27 126t91 96q65 40 175 63q111 23 280 22v31q0 70 -44 112t-130 42q-92 0 -134 -33t-50 -80h-184q8 123 103 205t265 82zM410 154q117 0 181 60q65 60 64 146v50q-123 0 -198 -12q-76 -11 -119 -30t-57 -49q-14 -29 -15 -63
q0 -39 37 -71q37 -31 107 -31z" />
    <glyph glyph-name="Aogonek" unicode="&#x104;" horiz-adv-x="1146" 
d="M829 297h-512l-112 -297h-205l492 1290h163l492 -1290h-82q-20 -25 -37 -51q-14 -23 -24.5 -52.5t-10.5 -60.5q0 -39 27 -65.5t65 -26.5q16 0 29.5 1t26.5 3q12 2 26 6v-102q-16 -4 -32 -6q-14 -2 -33 -3t-37 -1q-92 0 -143.5 48t-51.5 126q0 39 10.5 72.5t24.5 58.5
q16 29 37 53zM758 481l-185 512l-184 -512h369z" />
    <glyph glyph-name="aogonek" unicode="&#x105;" horiz-adv-x="952" 
d="M666 92q-27 -29 -64 -51q-33 -20 -83 -35.5t-120 -15.5q-154 0 -235.5 76.5t-81.5 199.5q0 70 26.5 126.5t91 96t175 62t280.5 22.5v31q0 70 -44 112t-130 42q-92 0 -134 -33t-50 -80h-184q8 123 103 205t265 82q80 0 146.5 -25.5t113.5 -69.5t73 -103.5t26 -129.5v-604
h-11q-20 -25 -36 -51q-14 -23 -24.5 -52.5t-10.5 -60.5q0 -39 26.5 -65.5t65.5 -26.5q16 0 29.5 1t25.5 3t27 6v-102q-16 -4 -33 -6q-14 -2 -32.5 -3t-37.5 -1q-92 0 -143 48t-51 126q0 39 10 72.5t25 58.5q16 29 37 53zM410 154q117 0 181 60t64 146v50
q-123 0 -198.5 -11.5t-118.5 -31t-57.5 -48t-14.5 -63.5q0 -39 37 -70.5t107 -31.5z" />
    <glyph glyph-name="Cacute" unicode="&#x106;" horiz-adv-x="1310" 
d="M748 1690h174l-174 -246h-123zM266 645q0 -104 36 -192t94 -153t134 -100q76 -36 156 -36q74 0 133 21q59 22 105 60q45 38 74 88q30 50 46 107h205q-23 -92 -71 -174q-49 -82 -122 -143t-166 -97t-204 -36q-123 0 -234 50q-112 50 -196 139t-134 208t-50 258
q0 137 50 257t134 209t196 139t234 50q106 0 199 -35q92 -36 163 -98q71 -61 119 -143q49 -82 72 -174h-205q-16 57 -46 107t-74 89q-44 38 -101 59q-57 22 -127 21q-80 0 -156 -35q-76 -36 -134 -101t-94 -152q-36 -89 -36 -193z" />
    <glyph glyph-name="cacute" unicode="&#x107;" horiz-adv-x="983" 
d="M573 1319h175l-175 -246h-122zM922 338q-16 -74 -52 -137q-35 -63 -88 -111q-53 -47 -122 -74t-148 -26q-92 0 -172 35t-140 97t-95 148q-34 86 -33 191q0 104 33 190q34 86 95 149q60 62 140 97t172 35q80 0 148 -27q69 -27 122 -74t88 -110t52 -137h-195
q-23 78 -76 126t-139 48q-49 0 -96 -22t-82 -61q-35 -40 -56 -94q-22 -54 -22 -120t22 -120t56 -94q35 -40 82 -62t96 -21q86 0 139 48t76 126h195z" />
    <glyph glyph-name="Ccircumflex" unicode="&#x108;" horiz-adv-x="1310" 
d="M952 1434h-164l-102 143l-102 -143h-164l184 245h164zM266 645q0 -104 36 -192t94 -153t134 -100q76 -36 156 -36q74 0 133 21q59 22 105 60q45 38 74 88q30 50 46 107h205q-23 -92 -71 -174q-49 -82 -122 -143t-166 -97t-204 -36q-123 0 -234 50q-112 50 -196 139
t-134 208t-50 258q0 137 50 257t134 209t196 139t234 50q106 0 199 -35q92 -36 163 -98q71 -61 119 -143q49 -82 72 -174h-205q-16 57 -46 107t-74 89q-44 38 -101 59q-57 22 -127 21q-80 0 -156 -35q-76 -36 -134 -101t-94 -152q-36 -89 -36 -193z" />
    <glyph glyph-name="ccircumflex" unicode="&#x109;" horiz-adv-x="983" 
d="M778 1065h-164l-102 143l-102 -143h-164l184 246h164zM922 338q-16 -74 -52 -137q-35 -63 -88 -111q-53 -47 -122 -74t-148 -26q-92 0 -172 35t-140 97t-95 148q-34 86 -33 191q0 104 33 190q34 86 95 149q60 62 140 97t172 35q80 0 148 -27q69 -27 122 -74t88 -110
t52 -137h-195q-23 78 -76 126t-139 48q-49 0 -96 -22t-82 -61q-35 -40 -56 -94q-22 -54 -22 -120t22 -120t56 -94q35 -40 82 -62t96 -21q86 0 139 48t76 126h195z" />
    <glyph glyph-name="Ccaron" unicode="&#x10c;" horiz-adv-x="1310" 
d="M758 1434h-164l-184 245h163l103 -143l102 143h164zM266 645q0 -104 36 -192t94 -153t134 -100q76 -36 156 -36q74 0 133 21q59 22 105 60q45 38 74 88q30 50 46 107h205q-23 -92 -71 -174q-49 -82 -122 -143t-166 -97t-204 -36q-123 0 -234 50q-112 50 -196 139
t-134 208t-50 258q0 137 50 257t134 209t196 139t234 50q106 0 199 -35q92 -36 163 -98q71 -61 119 -143q49 -82 72 -174h-205q-16 57 -46 107t-74 89q-44 38 -101 59q-57 22 -127 21q-80 0 -156 -35q-76 -36 -134 -101t-94 -152q-36 -89 -36 -193z" />
    <glyph glyph-name="ccaron" unicode="&#x10d;" horiz-adv-x="983" 
d="M594 1065h-164l-184 246h164l102 -144l102 144h164zM922 338q-16 -74 -52 -137q-35 -63 -88 -111q-53 -47 -122 -74t-148 -26q-92 0 -172 35t-140 97t-95 148q-34 86 -33 191q0 104 33 190q34 86 95 149q60 62 140 97t172 35q80 0 148 -27q69 -27 122 -74t88 -110
t52 -137h-195q-23 78 -76 126t-139 48q-49 0 -96 -22t-82 -61q-35 -40 -56 -94q-22 -54 -22 -120t22 -120t56 -94q35 -40 82 -62t96 -21q86 0 139 48t76 126h195z" />
    <glyph glyph-name="Dcaron" unicode="&#x10e;" horiz-adv-x="1239" 
d="M696 1434h-164l-184 245h164l102 -143l103 143h164zM543 184q80 0 155 35q76 35 135 96q58 61 94 146q36 84 36 184t-36 184t-94 146q-58 61 -135 96q-76 35 -155 35h-195v-922h195zM154 0v1290h389q123 0 234 -50q112 -50 196 -138t134 -205t50 -252t-50 -252t-134 -205
t-196 -138t-234 -50h-389z" />
    <glyph glyph-name="dcaron" unicode="&#x10f;" horiz-adv-x="1198" 
d="M1137 1290h163l-122 -246h-113zM512 -10q-92 0 -172 34.5t-140.5 97t-94 148.5t-33.5 191q0 104 33.5 190t94 148.5t140.5 97.5t172 35q66 0 113 -16.5t80 -34.5q37 -23 63 -52v461h184v-1290h-133l-41 92q-27 -29 -63 -51q-33 -20 -83 -35.5t-120 -15.5zM522 758
q-53 0 -101 -21.5t-85 -61.5t-58.5 -94.5t-21.5 -119.5q0 -66 21.5 -120t58.5 -94t85 -61.5t101 -21.5t101.5 21.5t85 61.5t58 94t21.5 120t-21.5 120t-58 94t-85 61.5t-101.5 21.5z" />
    <glyph glyph-name="Dcroat" unicode="&#x110;" horiz-adv-x="1300" 
d="M215 0v543h-174v184h174v563h389q123 0 234.5 -50t195.5 -138t134.5 -205t50.5 -252t-50.5 -252t-134.5 -205t-195.5 -138t-234.5 -50h-389zM604 184q80 0 156 35t134 96.5t94 145.5t36 184t-36 184t-94 145.5t-134 96.5t-156 35h-194v-379h245v-184h-245v-359h194z" />
    <glyph glyph-name="dcroat" unicode="&#x111;" horiz-adv-x="1075" 
d="M1075 973h-153v-973h-134l-40 92q-27 -29 -64 -51q-33 -20 -83 -35.5t-120 -15.5q-84 0 -158.5 32.5t-130 90t-88 136.5t-32.5 171t32.5 171t88 136t130 90t158.5 33q66 0 113 -16.5t80 -34.5q37 -23 63 -51v225h-256v164h256v153h187v-153h151v-164zM502 164
q49 0 94 19.5t79 54t53.5 82t19.5 100.5t-19.5 100t-53.5 82t-79 54.5t-94 19.5t-94.5 -19.5t-79 -54.5t-53 -82t-19.5 -100t19.5 -100.5t53 -82t79 -54t94.5 -19.5z" />
    <glyph glyph-name="Emacron" unicode="&#x112;" horiz-adv-x="1126" 
d="M840 1475h-512v133h512v-133zM1024 184v-184h-870v1290h850v-184h-656v-348h604v-185h-604v-389h676z" />
    <glyph glyph-name="emacron" unicode="&#x113;" horiz-adv-x="1013" 
d="M768 1106h-512v133h512v-133zM922 266q-23 -57 -58 -107t-84 -88t-113 -60q-65 -22 -145 -21q-92 0 -172 35t-140 97t-94 148t-34 191q0 104 34 190t92 149q58 62 137 97t167 35t167 -35t137 -97t92 -149q34 -86 34 -190q0 -16 -2 -32q-2 -15 -4 -26q-2 -14 -4 -24h-656
q4 -43 25 -82q20 -39 52 -69t76 -47t93 -17q84 0 133 36t72 66h195zM512 758q-92 0 -156 -63q-63 -62 -80 -163h492q-16 100 -82 163q-65 63 -174 63z" />
    <glyph glyph-name="Edotaccent" unicode="&#x116;" horiz-adv-x="1126" 
d="M707 1546q0 -47 -33 -80t-80 -32q-47 0 -80 32q-33 33 -33 80t33 80t80 33t80 -33t33 -80zM1024 184v-184h-870v1290h850v-184h-656v-348h604v-185h-604v-389h676z" />
    <glyph glyph-name="edotaccent" unicode="&#x117;" horiz-adv-x="1013" 
d="M625 1178q0 -47 -33 -80t-80 -33t-80 33t-33 80t33 79q33 33 80 33t80 -33q33 -32 33 -79zM922 266q-23 -57 -58 -107t-84 -88t-113 -60q-65 -22 -145 -21q-92 0 -172 35t-140 97t-94 148t-34 191q0 104 34 190t92 149q58 62 137 97t167 35t167 -35t137 -97t92 -149
q34 -86 34 -190q0 -16 -2 -32q-2 -15 -4 -26q-2 -14 -4 -24h-656q4 -43 25 -82q20 -39 52 -69t76 -47t93 -17q84 0 133 36t72 66h195zM512 758q-92 0 -156 -63q-63 -62 -80 -163h492q-16 100 -82 163q-65 63 -174 63z" />
    <glyph glyph-name="Eogonek" unicode="&#x118;" horiz-adv-x="1126" 
d="M154 0v1290h850v-184h-656v-348h604v-185h-604v-389h676v-184q-20 -25 -37 -51q-14 -23 -24.5 -52.5t-10.5 -60.5q0 -39 27 -65.5t65 -26.5q16 0 29.5 1t26.5 3q12 2 26 6v-102q-16 -4 -32 -6q-14 -2 -33 -3t-37 -1q-92 0 -143.5 48t-51.5 126q0 39 10.5 72.5t24.5 58.5
q16 29 37 53h-747z" />
    <glyph glyph-name="eogonek" unicode="&#x119;" horiz-adv-x="1013" 
d="M922 266q-47 -109 -124 -179.5t-194 -86.5q-20 -25 -37 -51q-14 -23 -24.5 -52.5t-10.5 -60.5q0 -39 27 -65.5t66 -26.5q16 0 29.5 1t25.5 3t27 6v-102q-16 -4 -33 -6q-14 -2 -32.5 -3t-37.5 -1q-92 0 -143 48t-51 126q0 35 9 65.5t21 55.5q12 29 31 53q-78 8 -147.5 45
t-124 98.5t-86 144t-31.5 183.5q0 104 34 190t92 148.5t137 97.5t167 35t167 -35t137 -97.5t92 -148.5t34 -190q0 -16 -2 -31.5t-4 -26.5q-2 -14 -4 -24h-656q4 -43 25 -82t52.5 -68.5t75.5 -47t93 -17.5q84 0 133.5 36t71.5 66h195zM512 758q-92 0 -155.5 -62.5
t-80.5 -163.5h492q-16 100 -81.5 163t-174.5 63z" />
    <glyph glyph-name="Ecaron" unicode="&#x11a;" horiz-adv-x="1126" 
d="M676 1434h-164l-184 245h164l102 -143l102 143h164zM1024 184v-184h-870v1290h850v-184h-656v-348h604v-185h-604v-389h676z" />
    <glyph glyph-name="ecaron" unicode="&#x11b;" horiz-adv-x="1013" 
d="M594 1065h-164l-184 246h164l102 -144l102 144h164zM922 266q-23 -57 -58 -107t-84 -88t-113 -60q-65 -22 -145 -21q-92 0 -172 35t-140 97t-94 148t-34 191q0 104 34 190t92 149q58 62 137 97t167 35t167 -35t137 -97t92 -149q34 -86 34 -190q0 -16 -2 -32
q-2 -15 -4 -26q-2 -14 -4 -24h-656q4 -43 25 -82q20 -39 52 -69t76 -47t93 -17q84 0 133 36t72 66h195zM512 758q-92 0 -156 -63q-63 -62 -80 -163h492q-16 100 -82 163q-65 63 -174 63z" />
    <glyph glyph-name="Gbreve" unicode="&#x11e;" horiz-adv-x="1372" 
d="M686 1556q47 0 81 32t42 71h143q-16 -100 -87 -168t-179 -68q-109 0 -179 68q-71 68 -87 168h143q8 -39 42 -71t81 -32zM686 -10q-123 0 -234 50q-112 50 -196 139t-134 208t-50 258q0 137 50 257t134 209t196 139t234 50q106 0 199 -35q92 -36 163 -96q71 -59 119 -137
q49 -78 72 -162h-205q-16 49 -46 97q-30 47 -74 82t-101 56q-57 22 -127 21q-80 0 -156 -35q-76 -36 -134 -101t-94 -152q-36 -88 -36 -193q0 -104 36 -192t94 -153t134 -100q76 -36 156 -36q76 0 140 25q65 26 114 69t81 100t44 123h-389v185h573v-666h-143l-51 123
q-41 -39 -97 -68q-47 -25 -115 -45q-69 -20 -157 -20z" />
    <glyph glyph-name="gbreve" unicode="&#x11f;" horiz-adv-x="1054" 
d="M512 1188q47 0 81 32t42 70h143q-16 -100 -87 -168t-179 -67q-109 0 -179 67q-71 68 -87 168h143q8 -39 42 -70q34 -32 81 -32zM932 922v-881q0 -84 -30 -156t-84 -124t-132 -80q-78 -29 -174 -29q-84 0 -152 23q-68 24 -117 63q-50 39 -83 91t-47 110h184q23 -47 73 -85
t142 -38q109 0 172 62t64 163v92q-27 -29 -64 -51q-33 -20 -80 -36q-47 -15 -112 -15q-84 0 -161 35t-134 95t-92 142q-34 82 -33 178q0 96 33 178q34 82 92 143q57 60 134 95t161 35q70 0 119 -17q50 -16 83 -34q37 -23 64 -52l41 93h133zM514 205q49 0 95 21q46 22 81 60
t56 88q22 50 22 107t-22 108q-22 50 -56 88q-35 38 -82 59q-47 22 -96 22t-96 -22t-82 -59q-35 -38 -56 -88q-22 -50 -22 -108q0 -57 22 -107t57 -88q36 -38 82 -60q46 -21 97 -21z" />
    <glyph glyph-name="uni0122" unicode="&#x122;" horiz-adv-x="1372" 
d="M686 -133q47 0 80 -35t33 -88q0 -74 -26 -125t-56 -86q-37 -39 -82 -65l-31 40q20 14 39 35q16 16 31 42q14 26 22 57q-53 0 -88 32q-35 33 -35 80t33 80t80 33zM686 -10q-123 0 -234 50q-112 50 -196 139t-134 208t-50 258q0 137 50 257t134 209t196 139t234 50
q106 0 199 -35q92 -36 163 -96q71 -59 119 -137q49 -78 72 -162h-205q-16 49 -46 97q-30 47 -74 82t-101 56q-57 22 -127 21q-80 0 -156 -35q-76 -36 -134 -101t-94 -152q-36 -88 -36 -193q0 -104 36 -192t94 -153t134 -100q76 -36 156 -36q76 0 140 25q65 26 114 69t81 100
t44 123h-389v185h573v-666h-143l-51 123q-41 -39 -97 -68q-47 -25 -115 -45q-69 -20 -157 -20z" />
    <glyph glyph-name="uni0123" unicode="&#x123;" horiz-adv-x="1054" 
d="M522 1055q-47 0 -79.5 34.5t-32.5 88.5q0 72 25.5 124t56.5 87q37 39 81 65l31 -41q-20 -16 -39 -37q-16 -16 -30.5 -40.5t-22.5 -55.5q53 0 88 -33t35 -80t-33 -79.5t-80 -32.5zM932 922v-881q0 -84 -30 -155.5t-84 -124t-132 -81t-174 -28.5q-84 0 -151.5 23.5
t-117.5 62.5t-83 91t-47 110h184q23 -47 73 -85t142 -38q109 0 172.5 62.5t63.5 162.5v92q-27 -29 -64 -51q-33 -20 -80 -35.5t-112 -15.5q-84 0 -161 34.5t-134.5 95t-91 142.5t-33.5 178t33.5 178t91 142.5t134.5 95.5t161 35q70 0 120 -16.5t82 -34.5q37 -23 64 -52
l41 93h133zM514 205q49 0 95 21.5t81 59.5t56.5 88t21.5 107t-21.5 107.5t-56.5 88.5t-82 59.5t-96 21.5t-96 -21.5t-82 -59.5t-56.5 -88t-21.5 -108q0 -57 21.5 -107t57.5 -88t82 -59.5t97 -21.5z" />
    <glyph glyph-name="Imacron" unicode="&#x12a;" horiz-adv-x="501" 
d="M512 1464h-512v133h512v-133zM348 0h-194v1290h194v-1290z" />
    <glyph glyph-name="imacron" unicode="&#x12b;" horiz-adv-x="430" 
d="M471 1106h-512v133h512v-133zM307 0h-184v922h184v-922z" />
    <glyph glyph-name="Iogonek" unicode="&#x12e;" horiz-adv-x="501" 
d="M154 1290h194v-1290h-72q-20 -25 -36 -51q-14 -23 -24.5 -52.5t-10.5 -60.5q0 -39 26.5 -65.5t65.5 -26.5q16 0 29.5 1t25.5 3t27 6v-102q-16 -4 -33 -6q-14 -2 -32.5 -3t-37.5 -1q-92 0 -143 48t-51 126q0 39 10 72.5t25 58.5q16 29 37 53v1290z" />
    <glyph glyph-name="iogonek" unicode="&#x12f;" horiz-adv-x="430" 
d="M123 922h184v-922h-61q-20 -25 -37 -51q-14 -23 -24.5 -52.5t-10.5 -60.5q0 -39 26.5 -65.5t65.5 -26.5q16 0 29.5 1t26.5 3q12 2 26 6v-102q-16 -4 -33 -6q-14 -2 -32.5 -3t-36.5 -1q-92 0 -143.5 48t-51.5 126q0 39 10.5 72.5t24.5 58.5q16 29 37 53v922zM215 1065
q-47 0 -80 32.5t-33 80.5q0 47 33 79.5t80 32.5t80 -32.5t33 -79.5t-33 -80t-80 -33z" />
    <glyph glyph-name="Idotaccent" unicode="&#x130;" horiz-adv-x="501" 
d="M369 1546q0 -47 -33 -80t-80 -32q-47 0 -80 32q-33 33 -33 80t33 80t80 33t80 -33t33 -80zM348 0h-194v1290h194v-1290z" />
    <glyph glyph-name="dotlessi" unicode="&#x131;" horiz-adv-x="430" 
d="M307 0h-184v922h184v-922z" />
    <glyph glyph-name="ij" unicode="&#x133;" horiz-adv-x="901" 
d="M307 307q0 -61 41 -102t103 -41q27 0 52 6t46 14q23 8 45 21v717h184v-942q0 -74 -21.5 -132.5t-60.5 -99.5t-91 -63.5t-113 -22.5q-43 0 -74 10q-16 4 -29 11v163q8 -4 19 -6q10 -2 20 -3t23 -1q61 0 102 41t41 103v51q-20 -12 -47 -21q-23 -8 -56.5 -14t-80.5 -6
q-61 0 -113.5 22.5t-91.5 63.5t-60.5 99t-21.5 132v615h184v-615zM215 1065q-47 0 -80 32.5t-33 80.5q0 47 33 79.5t80 32.5t80 -32.5t33 -79.5t-33 -80t-80 -33zM686 1065q-47 0 -80 32.5t-33 80.5q0 47 33 79.5t80 32.5t80 -32.5t33 -79.5t-33 -80t-80 -33z" />
    <glyph glyph-name="uni0136" unicode="&#x136;" horiz-adv-x="1075" 
d="M573 -133q47 0 80 -35t33 -88q0 -74 -26 -125t-56 -86q-37 -39 -82 -65l-30 40q20 14 38 35q16 16 31 42q14 26 23 57q-53 0 -88 32q-35 33 -35 80t33 80q32 33 79 33zM860 0l-512 604v-604h-194v1290h194v-594l471 594h236l-523 -635l564 -655h-236z" />
    <glyph glyph-name="uni0137" unicode="&#x137;" horiz-adv-x="880" 
d="M481 -133q47 0 80 -35t33 -88q0 -74 -26 -125t-56 -86q-37 -39 -82 -65l-31 40q20 14 39 35q16 16 31 42q14 26 23 57q-53 0 -89 32q-35 33 -34 80q0 47 32 80q33 33 80 33zM676 0l-359 440v-440h-184v1290h184v-768l318 400h215l-358 -430l409 -492h-225z" />
    <glyph glyph-name="Lacute" unicode="&#x139;" horiz-adv-x="983" 
d="M307 1690h174l-174 -246h-123zM963 184v-184h-809v1290h194v-1106h615z" />
    <glyph glyph-name="lacute" unicode="&#x13a;" horiz-adv-x="460" 
d="M287 1690h174l-174 -246h-123zM317 0h-184v1290h184v-1290z" />
    <glyph glyph-name="uni013B" unicode="&#x13b;" horiz-adv-x="983" 
d="M573 -133q47 0 80 -35t33 -88q0 -74 -26 -125t-56 -86q-37 -39 -82 -65l-30 40q20 14 38 35q16 16 31 42q14 26 23 57q-53 0 -88 32q-35 33 -35 80t33 80q32 33 79 33zM963 184v-184h-809v1290h194v-1106h615z" />
    <glyph glyph-name="uni013C" unicode="&#x13c;" horiz-adv-x="450" 
d="M225 -133q47 0 80 -35t33 -88q0 -74 -26 -125t-56 -86q-37 -39 -82 -65l-31 40q20 14 39 35q16 16 31 42q14 26 23 57q-53 0 -89 32q-35 33 -34 80q0 47 32 80q33 33 80 33zM317 0h-184v1290h184v-1290z" />
    <glyph glyph-name="Lcaron" unicode="&#x13d;" horiz-adv-x="983" 
d="M553 1290h164l-123 -246h-113zM963 184v-184h-809v1290h194v-1106h615z" />
    <glyph glyph-name="lcaron" unicode="&#x13e;" horiz-adv-x="563" 
d="M502 1290h164l-123 -246h-113zM317 0h-184v1290h184v-1290z" />
    <glyph glyph-name="Lslash" unicode="&#x141;" horiz-adv-x="1013" 
d="M993 184v-184h-809v389l-143 -92v184l143 92v717h195v-594l307 205v-184l-307 -205v-328h614z" />
    <glyph glyph-name="lslash" unicode="&#x142;" horiz-adv-x="532" 
d="M512 737l-164 -102v-635h-184v512l-144 -92v174l144 92v598h184v-475l164 102v-174z" />
    <glyph glyph-name="Nacute" unicode="&#x143;" horiz-adv-x="1290" 
d="M707 1690h174l-174 -246h-123zM1137 1290v-1290h-164l-625 922v-922h-194v1290h163l625 -921v921h195z" />
    <glyph glyph-name="nacute" unicode="&#x144;" horiz-adv-x="1044" 
d="M594 1321h174l-174 -246h-123zM563 932q76 0 144 -30t117 -82q50 -52 79 -126t29 -162v-532h-184v532q0 45 -18 86q-17 41 -47 72t-69 49t-82 19q-47 0 -88 -19q-41 -18 -71 -49q-31 -31 -48 -72t-18 -86v-532h-184v922h133l41 -93q27 29 63 52q33 18 83 34q50 17 120 17
z" />
    <glyph glyph-name="uni0145" unicode="&#x145;" horiz-adv-x="1290" 
d="M645 -133q47 0 80 -35t33 -88q0 -74 -26 -125t-56 -86q-37 -39 -82 -65l-31 40q20 14 39 35q16 16 31 42q14 26 22 57q-53 0 -88 32q-35 33 -35 80t33 80t80 33zM1137 1290v-1290h-164l-625 922v-922h-194v1290h163l625 -921v921h195z" />
    <glyph glyph-name="uni0146" unicode="&#x146;" horiz-adv-x="1044" 
d="M532 -133q47 0 80 -35t33 -88q0 -74 -25 -125q-26 -51 -57 -86q-37 -39 -82 -65l-30 40q20 14 38 35q16 16 31 42q14 26 23 57q-53 0 -88 32q-35 33 -35 80t33 80q32 33 79 33zM563 932q76 0 144 -30t117 -82q50 -52 79 -126t29 -162v-532h-184v532q0 45 -18 86
q-17 41 -47 72t-69 49t-82 19q-47 0 -88 -19q-41 -18 -71 -49q-31 -31 -48 -72t-18 -86v-532h-184v922h133l41 -93q27 29 63 52q33 18 83 34q50 17 120 17z" />
    <glyph glyph-name="Ncaron" unicode="&#x147;" horiz-adv-x="1290" 
d="M727 1434h-164l-184 245h164l102 -143l103 143h163zM1137 1290v-1290h-164l-625 922v-922h-194v1290h163l625 -921v921h195z" />
    <glyph glyph-name="ncaron" unicode="&#x148;" horiz-adv-x="1044" 
d="M604 1065h-164l-184 246h164l102 -144l103 144h163zM563 932q76 0 144 -30t117 -82q50 -52 79 -126t29 -162v-532h-184v532q0 45 -18 86q-17 41 -47 72t-69 49t-82 19q-47 0 -88 -19q-41 -18 -71 -49q-31 -31 -48 -72t-18 -86v-532h-184v922h133l41 -93q27 29 63 52
q33 18 83 34q50 17 120 17z" />
    <glyph glyph-name="Omacron" unicode="&#x14c;" horiz-adv-x="1372" 
d="M942 1464h-512v133h512v-133zM1106 645q0 104 -36 193q-36 88 -94 152q-58 65 -134 101t-156 35q-80 0 -156 -35q-76 -36 -134 -101t-94 -152q-36 -88 -36 -193q0 -104 36 -192t94 -153t134 -100q76 -36 156 -36t156 36t134 100q58 65 94 153t36 192zM1300 645
q0 -139 -50 -258t-134 -208t-195 -139q-112 -50 -235 -50t-234 50q-112 50 -196 139t-134 208t-50 258q0 137 50 257t134 209t196 139t234 50q123 0 235 -50t195 -139q84 -89 134 -209t50 -257z" />
    <glyph glyph-name="omacron" unicode="&#x14d;" 
d="M768 1106h-512v133h512v-133zM768 461q0 66 -22 120t-56 94q-35 40 -82 61q-47 22 -96 22t-96 -22t-82 -61q-35 -40 -56 -94q-22 -54 -22 -120t22 -120t56 -94q35 -40 82 -62t96 -21q49 0 96 21q47 22 82 62t56 94q22 54 22 120zM952 461q0 -104 -33 -191
q-34 -86 -95 -148q-60 -62 -140 -97t-172 -35t-172 35t-140 97t-95 148q-34 86 -33 191q0 104 33 190q34 86 95 149q60 62 140 97t172 35t172 -35t140 -97t95 -149q33 -86 33 -190z" />
    <glyph glyph-name="Ohungarumlaut" unicode="&#x150;" horiz-adv-x="1372" 
d="M635 1690h174l-184 -246h-123zM922 1690h174l-185 -246h-123zM1106 645q0 104 -36 193q-36 88 -94 152q-58 65 -134 101t-156 35q-80 0 -156 -35q-76 -36 -134 -101t-94 -152q-36 -88 -36 -193q0 -104 36 -192t94 -153t134 -100q76 -36 156 -36t156 36t134 100
q58 65 94 153t36 192zM1300 645q0 -139 -50 -258t-134 -208t-195 -139q-112 -50 -235 -50t-234 50q-112 50 -196 139t-134 208t-50 258q0 137 50 257t134 209t196 139t234 50q123 0 235 -50t195 -139q84 -89 134 -209t50 -257z" />
    <glyph glyph-name="ohungarumlaut" unicode="&#x151;" 
d="M451 1311h174l-185 -246h-123zM737 1311h174l-184 -246h-123zM768 461q0 66 -22 120t-56 94q-35 40 -82 61q-47 22 -96 22t-96 -22t-82 -61q-35 -40 -56 -94q-22 -54 -22 -120t22 -120t56 -94q35 -40 82 -62t96 -21q49 0 96 21q47 22 82 62t56 94q22 54 22 120zM952 461
q0 -104 -33 -191q-34 -86 -95 -148q-60 -62 -140 -97t-172 -35t-172 35t-140 97t-95 148q-34 86 -33 191q0 104 33 190q34 86 95 149q60 62 140 97t172 35t172 -35t140 -97t95 -149q33 -86 33 -190z" />
    <glyph glyph-name="OE" unicode="&#x152;" horiz-adv-x="1730" 
d="M686 0q-123 0 -234.5 50t-195.5 138t-134 205t-50 252t50 252t134 205t195.5 138t234.5 50h922v-184h-584v-348h532v-185h-532v-389h604v-184h-942zM829 184v922h-143q-80 0 -155.5 -35t-134 -96.5t-94.5 -145.5t-36 -184t36 -184t94.5 -145.5t134 -96.5t155.5 -35h143z
" />
    <glyph glyph-name="oe" unicode="&#x153;" horiz-adv-x="1648" 
d="M1556 266q-23 -57 -57.5 -107t-82.5 -88t-110.5 -59.5t-138.5 -21.5q-78 0 -136 26.5t-99 59.5q-47 37 -82 88q-35 -51 -86 -88q-43 -33 -108.5 -59.5t-153.5 -26.5t-167 34.5t-137.5 97t-92 148.5t-33.5 191q0 104 33.5 190t92 148.5t137.5 97.5t167 35t153.5 -27.5
t108.5 -60.5q51 -37 86 -86q33 49 80 86q41 33 97 60.5t130 27.5q80 0 154.5 -35t131 -97.5t90.5 -148.5t34 -190q0 -16 -2 -31.5t-4 -26.5q-2 -14 -5 -24h-634q8 -43 29.5 -82t54 -68.5t73.5 -47t88 -17.5q78 0 125 36t70 66h194zM748 461q0 70 -21.5 126t-55.5 96
t-79 62.5t-90 22.5q-47 0 -91 -22.5t-78 -62.5t-55.5 -96.5t-21.5 -125.5q0 -70 21.5 -126t55.5 -96t78 -62.5t91 -22.5q45 0 90 22.5t79 62.5t55.5 96t21.5 126zM1157 758q-43 0 -82 -18.5t-70.5 -49.5t-53 -71.5t-29.5 -86.5h471q-16 100 -80 163t-156 63z" />
    <glyph glyph-name="Racute" unicode="&#x154;" horiz-adv-x="1146" 
d="M635 1690h174l-174 -246h-123zM573 512h-225v-512h-194v1290h512q80 0 151 -30q72 -31 124 -83t83 -124t31 -152q0 -113 -45 -183q-45 -71 -99 -112q-63 -49 -143 -74l317 -532h-215zM348 696h318q39 0 73 17q35 16 62 44t43 64q16 37 16 80t-16 80t-43 65t-62 44t-73 16
h-318v-410z" />
    <glyph glyph-name="racute" unicode="&#x155;" horiz-adv-x="634" 
d="M420 1311h174l-174 -246h-123zM532 932q16 0 27 -2q10 -2 19 -4l16 -4v-185q-8 2 -19 4q-10 2 -21 4t-22 3q-47 0 -88 -19q-41 -18 -71 -49q-31 -31 -48 -72t-18 -86v-522h-184v922h133l41 -93q25 29 59 52q29 18 73 34q44 17 103 17z" />
    <glyph glyph-name="uni0156" unicode="&#x156;" horiz-adv-x="1146" 
d="M594 -115q47 0 80 -35t33 -88q0 -74 -26 -124q-26 -51 -56 -87q-37 -39 -82 -65l-31 41q20 14 39 35q16 16 31 42q14 26 22 56q-53 0 -88 33t-35 80t33 80q33 32 80 32zM573 512h-225v-512h-194v1290h512q80 0 151 -30q72 -31 124 -83t83 -124t31 -152q0 -113 -45 -183
q-45 -71 -99 -112q-63 -49 -143 -74l317 -532h-215zM348 696h318q39 0 73 17q35 16 62 44t43 64q16 37 16 80t-16 80t-43 65t-62 44t-73 16h-318v-410z" />
    <glyph glyph-name="uni0157" unicode="&#x157;" horiz-adv-x="634" 
d="M215 -133q47 0 80 -35t33 -88q0 -74 -26 -125t-56 -86q-37 -39 -82 -65l-31 40q20 14 39 35q16 16 31 42q14 26 22 57q-53 0 -88 32q-35 33 -35 80t33 80t80 33zM532 932q16 0 27 -2q10 -2 19 -4l16 -4v-185q-8 2 -19 4q-10 2 -21 4t-22 3q-47 0 -88 -19q-41 -18 -71 -49
q-31 -31 -48 -72t-18 -86v-522h-184v922h133l41 -93q25 29 59 52q29 18 73 34q44 17 103 17z" />
    <glyph glyph-name="Rcaron" unicode="&#x158;" horiz-adv-x="1146" 
d="M666 1434h-164l-185 245h164l103 -143l102 143h164zM573 512h-225v-512h-194v1290h512q80 0 151 -30q72 -31 124 -83t83 -124t31 -152q0 -113 -45 -183q-45 -71 -99 -112q-63 -49 -143 -74l317 -532h-215zM348 696h318q39 0 73 17q35 16 62 44t43 64q16 37 16 80t-16 80
t-43 65t-62 44t-73 16h-318v-410z" />
    <glyph glyph-name="rcaron" unicode="&#x159;" horiz-adv-x="634" 
d="M461 1065h-164l-184 246h163l103 -144l102 144h164zM532 932q16 0 27 -2q10 -2 19 -4l16 -4v-185q-8 2 -19 4q-10 2 -21 4t-22 3q-47 0 -88 -19q-41 -18 -71 -49q-31 -31 -48 -72t-18 -86v-522h-184v922h133l41 -93q25 29 59 52q29 18 73 34q44 17 103 17z" />
    <glyph glyph-name="Sacute" unicode="&#x15a;" 
d="M584 1690h174l-174 -246h-123zM82 942q0 70 31 134q31 65 88 115t136 80t175 29q92 0 169 -30q77 -31 133 -85t87 -127t31 -157h-195q0 100 -62 163q-62 62 -163 62q-53 0 -97 -15t-75 -42t-47 -59q-16 -33 -17 -68q0 -68 52 -104q51 -37 127 -64t165 -52q89 -26 164 -70
q76 -44 127 -115q51 -72 52 -189q0 -70 -32 -134q-32 -65 -90 -115t-142 -80q-83 -30 -187 -29q-104 0 -185 29q-81 30 -139 82q-57 52 -87 126t-29 162h194q0 -109 62 -167q61 -58 184 -58q131 0 194 53q62 53 62 131q0 72 -51 113t-127 68q-76 28 -165 55t-165 68
q-76 42 -127 110q-51 67 -51 180z" />
    <glyph glyph-name="sacute" unicode="&#x15b;" horiz-adv-x="829" 
d="M471 1311h174l-174 -246h-123zM256 297q8 -61 47 -97t117 -36q86 0 125 33t39 79q0 41 -37 63t-91 36t-118 29q-63 15 -118 45q-54 29 -91 76q-37 48 -37 130q0 57 23 108q23 50 63 88q41 38 100 59q58 22 132 22q162 0 245 -78q84 -78 93 -209h-185q-8 47 -46 80
t-107 33q-70 0 -107 -32t-37 -71q0 -41 37 -62q37 -22 91 -36t118 -30q63 -15 118 -44q54 -29 91 -76q37 -48 37 -131q0 -123 -88 -204q-88 -82 -250 -82q-170 0 -255 80t-93 227h184z" />
    <glyph glyph-name="Scedilla" unicode="&#x15e;" 
d="M82 942q0 70 30.5 134.5t88 114.5t136.5 79.5t175 29.5q92 0 169 -30.5t133 -85t87 -127t31 -156.5h-195q0 100 -62.5 162.5t-162.5 62.5q-53 0 -97 -15t-75 -42t-47.5 -59.5t-16.5 -67.5q0 -68 51.5 -104.5t127 -63t165 -52.5t165 -70t127 -115.5t51.5 -188.5
q0 -66 -31 -128t-83 -112.5t-124 -82t-152 -35.5l-30 -72q53 -8 88 -44t35 -89q0 -61 -47.5 -102t-147.5 -41q-20 0 -36.5 1t-28.5 3q-14 2 -27 6v92q10 -4 24 -6q10 -2 25.5 -3t32.5 -1q47 0 69.5 19.5t22.5 41.5q0 23 -22.5 42.5t-69.5 19.5q-12 0 -21.5 -2t-15.5 -5
q-8 -2 -14 -4l61 144q-88 4 -161.5 34.5t-126 84t-82 125t-29.5 155.5h194q0 -109 61.5 -167t184.5 -58q131 0 193.5 53t62.5 131q0 72 -51 113t-127 68.5t-165 54t-165 68.5t-127 109.5t-51 180.5z" />
    <glyph glyph-name="scedilla" unicode="&#x15f;" horiz-adv-x="829" 
d="M256 297q8 -61 47 -97t117 -36q86 0 125 32.5t39 79.5q0 41 -37 62.5t-91.5 36t-118 30t-117.5 44t-91 76.5t-37 130q0 57 22.5 107.5t63.5 88.5t99.5 59.5t132.5 21.5q162 0 245.5 -78t92.5 -209h-185q-8 47 -46 80t-107 33q-70 0 -107 -32t-37 -71q0 -41 37 -62.5
t91.5 -35.5t117.5 -29.5t117.5 -44t91.5 -77t37 -130.5q0 -117 -77 -193.5t-200 -92.5l-30 -72q53 -8 87.5 -44t34.5 -89q0 -61 -47 -102t-147 -41q-20 0 -36.5 1t-29.5 3q-14 2 -26 6v92q10 -4 24 -6q10 -2 25.5 -3t32.5 -1q47 0 69.5 19.5t22.5 41.5q0 23 -22.5 42.5
t-69.5 19.5q-12 0 -21.5 -2t-15.5 -5q-8 -2 -15 -4l62 144q-139 8 -219 84t-88 223h184z" />
    <glyph glyph-name="Scaron" unicode="&#x160;" 
d="M604 1434h-164l-184 245h164l102 -143l103 143h163zM82 942q0 70 31 134q31 65 88 115t136 80t175 29q92 0 169 -30q77 -31 133 -85t87 -127t31 -157h-195q0 100 -62 163q-62 62 -163 62q-53 0 -97 -15t-75 -42t-47 -59q-16 -33 -17 -68q0 -68 52 -104q51 -37 127 -64
t165 -52q89 -26 164 -70q76 -44 127 -115q51 -72 52 -189q0 -70 -32 -134q-32 -65 -90 -115t-142 -80q-83 -30 -187 -29q-104 0 -185 29q-81 30 -139 82q-57 52 -87 126t-29 162h194q0 -109 62 -167q61 -58 184 -58q131 0 194 53q62 53 62 131q0 72 -51 113t-127 68
q-76 28 -165 55t-165 68q-76 42 -127 110q-51 67 -51 180z" />
    <glyph glyph-name="scaron" unicode="&#x161;" horiz-adv-x="829" 
d="M492 1065h-164l-185 246h164l103 -144l102 144h164zM256 297q8 -61 47 -97t117 -36q86 0 125 33t39 79q0 41 -37 63t-91 36t-118 29q-63 15 -118 45q-54 29 -91 76q-37 48 -37 130q0 57 23 108q23 50 63 88q41 38 100 59q58 22 132 22q162 0 245 -78q84 -78 93 -209h-185
q-8 47 -46 80t-107 33q-70 0 -107 -32t-37 -71q0 -41 37 -62q37 -22 91 -36t118 -30q63 -15 118 -44q54 -29 91 -76q37 -48 37 -131q0 -123 -88 -204q-88 -82 -250 -82q-170 0 -255 80t-93 227h184z" />
    <glyph glyph-name="uni0162" unicode="&#x162;" horiz-adv-x="1034" 
d="M522 -133q47 0 80 -35t33 -88q0 -74 -26 -125t-56 -86q-37 -39 -82 -65l-31 40q20 14 39 35q16 16 31 42q14 26 22 57q-53 0 -88 32q-35 33 -34 80q0 47 32 80q33 33 80 33zM31 1290h973v-184h-390v-1106h-194v1106h-389v184z" />
    <glyph glyph-name="uni0163" unicode="&#x163;" horiz-adv-x="686" 
d="M420 -133q47 0 80 -35t32 -88q0 -74 -25 -125q-26 -51 -56 -86q-37 -39 -82 -65l-31 40q20 14 39 35q16 16 31 42q14 26 22 57q-53 0 -88 32q-35 33 -35 80t33 80t80 33zM389 307q0 -61 41 -102t102 -41q10 0 22 1q11 1 21 3t19 6v-164q-12 -6 -29 -10q-31 -10 -73 -10
q-61 0 -114 22q-52 23 -91 64t-61 99t-21 132v441h-164v174h72q53 0 88 34q35 35 35 88v123h153v-245h205v-174h-205v-441z" />
    <glyph glyph-name="Tcaron" unicode="&#x164;" horiz-adv-x="1034" 
d="M594 1434h-164l-184 245h164l102 -143l102 143h164zM31 1290h973v-184h-390v-1106h-194v1106h-389v184z" />
    <glyph glyph-name="tcaron" unicode="&#x165;" horiz-adv-x="727" 
d="M666 1290h163l-122 -246h-113zM389 307q0 -61 41 -102t102 -41q10 0 21.5 1t21.5 3t19 6v-164q-12 -6 -29 -10q-31 -10 -73 -10q-61 0 -113.5 22.5t-91.5 63.5t-60.5 99t-21.5 132v441h-164v174h72q53 0 88 34.5t35 87.5v123h153v-245h205v-174h-205v-441z" />
    <glyph glyph-name="Umacron" unicode="&#x16a;" horiz-adv-x="1228" 
d="M860 1464h-512v133h512v-133zM614 164q61 0 114 22q52 23 91 63t61 96t21 126v819h195v-819q0 -104 -36 -192t-101 -153t-152 -100q-88 -36 -193 -36q-104 0 -192 36t-153 100q-65 65 -100 153q-36 88 -36 192v819h195v-819q0 -70 21 -126q22 -56 61 -96t91 -63
q52 -22 113 -22z" />
    <glyph glyph-name="umacron" unicode="&#x16b;" horiz-adv-x="1054" 
d="M788 1096h-512v133h512v-133zM492 -10q-78 0 -145 29q-67 30 -117 82t-78 126q-29 74 -29 162v533h184v-533q0 -47 18 -88q17 -41 47 -72t68 -48q39 -17 82 -17q45 0 86 17t72 48t49 72t19 88v533h184v-922h-133l-41 92q-27 -29 -64 -51q-33 -20 -83 -36
q-49 -15 -119 -15z" />
    <glyph glyph-name="Uring" unicode="&#x16e;" horiz-adv-x="1228" 
d="M686 1577q0 31 -20 56q-20 26 -52 26q-31 0 -51 -26t-20 -56q0 -31 20 -56q20 -26 51 -26t52 26q20 25 20 56zM788 1577q0 -70 -48 -122t-126 -52t-126 52t-48 122t48 122t126 52t126 -52t48 -122zM614 164q61 0 114 22q52 23 91 63t61 96t21 126v819h195v-819
q0 -104 -36 -192t-101 -153t-152 -100q-88 -36 -193 -36q-104 0 -192 36t-153 100q-65 65 -100 153q-36 88 -36 192v819h195v-819q0 -70 21 -126q22 -56 61 -96t91 -63q52 -22 113 -22z" />
    <glyph glyph-name="uring" unicode="&#x16f;" horiz-adv-x="1054" 
d="M604 1206q0 31 -20 57t-52 25q-31 0 -51 -25q-20 -26 -20 -57t20 -56q20 -26 51 -26t52 26q20 25 20 56zM707 1206q0 -70 -49 -122q-48 -52 -126 -52t-125 52q-48 52 -49 122q0 70 49 122q48 52 125 52q78 0 126 -52q49 -52 49 -122zM492 -10q-78 0 -145 29
q-67 30 -117 82t-78 126q-29 74 -29 162v533h184v-533q0 -47 18 -88q17 -41 47 -72t68 -48q39 -17 82 -17q45 0 86 17t72 48t49 72t19 88v533h184v-922h-133l-41 92q-27 -29 -64 -51q-33 -20 -83 -36q-49 -15 -119 -15z" />
    <glyph glyph-name="Uhungarumlaut" unicode="&#x170;" horiz-adv-x="1228" 
d="M543 1690h174l-185 -246h-122zM829 1690h175l-185 -246h-123zM614 164q61 0 114 22q52 23 91 63t61 96t21 126v819h195v-819q0 -104 -36 -192t-101 -153t-152 -100q-88 -36 -193 -36q-104 0 -192 36t-153 100q-65 65 -100 153q-36 88 -36 192v819h195v-819q0 -70 21 -126
q22 -56 61 -96t91 -63q52 -22 113 -22z" />
    <glyph glyph-name="uhungarumlaut" unicode="&#x171;" horiz-adv-x="1054" 
d="M461 1321h174l-184 -246h-123zM748 1321h174l-185 -246h-123zM492 -10q-78 0 -145 29q-67 30 -117 82t-78 126q-29 74 -29 162v533h184v-533q0 -47 18 -88q17 -41 47 -72t68 -48q39 -17 82 -17q45 0 86 17t72 48t49 72t19 88v533h184v-922h-133l-41 92q-27 -29 -64 -51
q-33 -20 -83 -36q-49 -15 -119 -15z" />
    <glyph glyph-name="Uogonek" unicode="&#x172;" horiz-adv-x="1228" 
d="M614 164q61 0 113.5 22.5t91.5 62.5t60.5 96t21.5 126v819h195v-819q0 -100 -34 -184t-89 -146.5t-128 -99.5t-149 -41q-18 -25 -30 -51q-12 -23 -21.5 -52.5t-9.5 -60.5q0 -39 26.5 -65.5t65.5 -26.5q16 0 29.5 1t25.5 3t27 6v-102q-16 -4 -33 -6q-14 -2 -32.5 -3
t-36.5 -1q-92 0 -143.5 48t-51.5 126q0 35 9 65.5t22 55.5q12 29 30 53q-92 8 -171.5 47t-140 101.5t-94.5 147.5t-34 185v819h195v-819q0 -70 21.5 -126t60.5 -96t91 -62.5t113 -22.5z" />
    <glyph glyph-name="uogonek" unicode="&#x173;" horiz-adv-x="1054" 
d="M758 92q-27 -29 -64 -51q-33 -20 -83 -35.5t-119 -15.5q-78 0 -144.5 29.5t-117 82t-79 126t-28.5 161.5v533h184v-533q0 -47 17.5 -88t47 -71.5t68.5 -48t82 -17.5q45 0 86 17.5t72 48t49.5 71.5t18.5 88v533h184v-922h-10q-20 -25 -37 -51q-14 -23 -24.5 -52.5
t-10.5 -60.5q0 -39 26.5 -65.5t65.5 -26.5q16 0 29.5 1t25.5 3t27 6v-102q-16 -4 -33 -6q-14 -2 -32.5 -3t-36.5 -1q-92 0 -143.5 48t-51.5 126q0 39 10.5 72.5t24.5 58.5q16 29 37 53z" />
    <glyph glyph-name="Ydieresis" unicode="&#x178;" horiz-adv-x="1054" 
d="M461 1546q0 -47 -33 -80t-80 -32q-47 0 -80 32q-33 33 -32 80q0 47 32 80q33 33 80 33t80 -33t33 -80zM809 1546q0 -47 -33 -80t-80 -32q-47 0 -80 32q-33 33 -32 80q0 47 32 80q33 33 80 33t80 -33t33 -80zM532 707l297 583h205l-409 -788v-502h-195v502l-410 788h205
l297 -583h10z" />
    <glyph glyph-name="Zacute" unicode="&#x179;" 
d="M573 1690h175l-175 -246h-122zM307 184h656v-184h-902v133l625 973h-604v184h850v-133z" />
    <glyph glyph-name="zacute" unicode="&#x17a;" horiz-adv-x="808" 
d="M461 1321h174l-174 -246h-123zM502 748h-441v174h666v-164l-440 -584h461v-174h-687v164z" />
    <glyph glyph-name="Zdotaccent" unicode="&#x17b;" 
d="M625 1546q0 -47 -33 -80t-80 -32q-47 0 -80 32q-33 33 -33 80t33 80t80 33t80 -33t33 -80zM307 184h656v-184h-902v133l625 973h-604v184h850v-133z" />
    <glyph glyph-name="zdotaccent" unicode="&#x17c;" horiz-adv-x="808" 
d="M522 1178q0 -47 -33 -80t-79 -33q-47 0 -80 33t-33 80t33 79q33 33 80 33t79 -33q33 -32 33 -79zM502 748h-441v174h666v-164l-440 -584h461v-174h-687v164z" />
    <glyph glyph-name="Zcaron" unicode="&#x17d;" 
d="M594 1434h-164l-184 245h164l102 -143l102 143h164zM307 184h656v-184h-902v133l625 973h-604v184h850v-133z" />
    <glyph glyph-name="zcaron" unicode="&#x17e;" horiz-adv-x="808" 
d="M481 1065h-164l-184 246h164l102 -144l103 144h164zM502 748h-441v174h666v-164l-440 -584h461v-174h-687v164z" />
    <glyph glyph-name="florin" unicode="&#x192;" horiz-adv-x="737" 
d="M317 -20q-29 -154 -114.5 -236t-233.5 -82q-20 0 -36.5 1t-28.5 3q-14 2 -27 6l41 176q10 -4 21 -6q18 -6 51 -6q125 0 153 144l123 645h-153l30 163h154l41 195q33 154 117 235.5t231 81.5q18 0 35.5 -2t30.5 -4q14 -2 26 -4l-41 -176q-10 2 -20 6q-10 2 -22.5 4
t-28.5 2q-125 0 -154 -143l-41 -195h205l-31 -163h-205z" />
    <glyph glyph-name="uni0218" unicode="&#x218;" 
d="M512 -115q47 0 80 -35t33 -88q0 -74 -26 -124q-26 -51 -56 -87q-37 -39 -82 -65l-31 41q20 14 39 35q16 16 31 42q14 26 22 56q-53 0 -88 33t-35 80t33 80q33 32 80 32zM82 942q0 70 31 134q31 65 88 115t136 80t175 29q92 0 169 -30q77 -31 133 -85t87 -127t31 -157
h-195q0 100 -62 163q-62 62 -163 62q-53 0 -97 -15t-75 -42t-47 -59q-16 -33 -17 -68q0 -68 52 -104q51 -37 127 -64t165 -52q89 -26 164 -70q76 -44 127 -115q51 -72 52 -189q0 -70 -32 -134q-32 -65 -90 -115t-142 -80q-83 -30 -187 -29q-104 0 -185 29q-81 30 -139 82
q-57 52 -87 126t-29 162h194q0 -109 62 -167q61 -58 184 -58q131 0 194 53q62 53 62 131q0 72 -51 113t-127 68q-76 28 -165 55t-165 68q-76 42 -127 110q-51 67 -51 180z" />
    <glyph glyph-name="uni0219" unicode="&#x219;" horiz-adv-x="829" 
d="M420 -133q47 0 80 -35t32 -88q0 -74 -25 -125q-26 -51 -56 -86q-37 -39 -82 -65l-31 40q20 14 39 35q16 16 31 42q14 26 22 57q-53 0 -88 32q-35 33 -35 80t33 80t80 33zM256 297q8 -61 47 -97t117 -36q86 0 125 33t39 79q0 41 -37 63t-91 36t-118 29q-63 15 -118 45
q-54 29 -91 76q-37 48 -37 130q0 57 23 108q23 50 63 88q41 38 100 59q58 22 132 22q162 0 245 -78q84 -78 93 -209h-185q-8 47 -46 80t-107 33q-70 0 -107 -32t-37 -71q0 -41 37 -62q37 -22 91 -36t118 -30q63 -15 118 -44q54 -29 91 -76q37 -48 37 -131q0 -123 -88 -204
q-88 -82 -250 -82q-170 0 -255 80t-93 227h184z" />
    <glyph glyph-name="uni021A" unicode="&#x21a;" horiz-adv-x="1034" 
d="M522 -133q47 0 80 -35t33 -88q0 -74 -26 -125t-56 -86q-37 -39 -82 -65l-31 40q20 14 39 35q16 16 31 42q14 26 22 57q-53 0 -88 32q-35 33 -34 80q0 47 32 80q33 33 80 33zM31 1290h973v-184h-390v-1106h-194v1106h-389v184z" />
    <glyph glyph-name="uni021B" unicode="&#x21b;" horiz-adv-x="686" 
d="M420 -133q47 0 80 -35t32 -88q0 -74 -25 -125q-26 -51 -56 -86q-37 -39 -82 -65l-31 40q20 14 39 35q16 16 31 42q14 26 22 57q-53 0 -88 32q-35 33 -35 80t33 80t80 33zM389 307q0 -61 41 -102t102 -41q10 0 22 1q11 1 21 3t19 6v-164q-12 -6 -29 -10q-31 -10 -73 -10
q-61 0 -114 22q-52 23 -91 64t-61 99t-21 132v441h-164v174h72q53 0 88 34q35 35 35 88v123h153v-245h205v-174h-205v-441z" />
    <glyph glyph-name="uni02BC" unicode="&#x2bc;" horiz-adv-x="348" 
d="M174 1290q47 0 80 -34.5t33 -88.5q0 -74 -25.5 -125t-56.5 -86q-37 -39 -82 -65l-31 41q20 14 39 35q16 16 30.5 41.5t22.5 56.5q-53 0 -88 32.5t-35 80.5q0 47 33 79.5t80 32.5z" />
    <glyph glyph-name="circumflex" unicode="&#x2c6;" horiz-adv-x="655" 
d="M594 1034h-164l-102 144l-103 -144h-164l185 246h164z" />
    <glyph glyph-name="caron" unicode="&#x2c7;" horiz-adv-x="655" 
d="M410 1034h-164l-185 246h164l103 -143l102 143h164z" />
    <glyph glyph-name="breve" unicode="&#x2d8;" horiz-adv-x="655" 
d="M328 1178q47 0 80.5 31.5t42.5 70.5h143q-16 -100 -87 -168t-179 -68q-109 0 -179.5 68t-87.5 168h144q8 -39 42 -70.5t81 -31.5z" />
    <glyph glyph-name="dotaccent" unicode="&#x2d9;" horiz-adv-x="348" 
d="M287 1178q0 -47 -33 -80t-80 -33t-80 32.5t-33 80.5q0 47 33 79.5t80 32.5t80 -32.5t33 -79.5z" />
    <glyph glyph-name="ring" unicode="&#x2da;" horiz-adv-x="471" 
d="M307 1188q0 31 -20.5 56.5t-50.5 25.5q-31 0 -51.5 -25.5t-20.5 -56.5t20.5 -56.5t51.5 -25.5t51 25.5t20 56.5zM410 1188q0 -70 -48.5 -122t-125.5 -52q-78 0 -126.5 52t-48.5 122t48.5 122t126.5 52t126 -52t48 -122z" />
    <glyph glyph-name="ogonek" unicode="&#x2db;" horiz-adv-x="419" 
d="M256 0q-20 -25 -37 -51q-14 -23 -24.5 -52.5t-10.5 -60.5q0 -39 27 -65.5t65 -26.5q16 0 29.5 1t26.5 3q12 2 26 6v-102q-16 -4 -32 -6q-14 -2 -33 -3t-37 -1q-92 0 -143.5 48t-51.5 126q0 39 10.5 72.5t24.5 58.5q16 29 37 53h123z" />
    <glyph glyph-name="tilde" unicode="&#x2dc;" horiz-adv-x="718" 
d="M471 1034q-47 0 -78 19.5t-54.5 42t-45 42t-47.5 19.5q-31 0 -56.5 -29.5t-25.5 -83.5h-103q0 123 54.5 184.5t132.5 61.5q45 0 75.5 -19.5t55 -42t45 -42t49.5 -19.5q31 0 56.5 30t25.5 83h102q0 -123 -54 -184.5t-132 -61.5z" />
    <glyph glyph-name="hungarumlaut" unicode="&#x2dd;" horiz-adv-x="716" 
d="M195 1290h174l-185 -246h-123zM481 1290h174l-184 -246h-123z" />
    <glyph glyph-name="uni0401" unicode="&#x401;" horiz-adv-x="1126" 
d="M1024 184v-184h-870v1290h850v-184h-656v-348h604v-185h-604v-389h676zM522 1546q0 -47 -32.5 -79.5t-79.5 -32.5t-80 32.5t-33 79.5t32.5 80t80.5 33q47 0 79.5 -33t32.5 -80zM870 1546q0 -47 -32.5 -79.5t-79.5 -32.5t-80 32.5t-33 79.5t33 80t80 33t79.5 -33t32.5 -80
z" />
    <glyph glyph-name="uni0402" unicode="&#x402;" horiz-adv-x="1269" 
d="M778 840q92 0 171 -34t136.5 -95.5t90 -148.5t32.5 -193q0 -109 -33.5 -196t-96 -148.5t-151.5 -94t-200 -32.5v184q61 0 113.5 21.5t91.5 60.5t60.5 91t21.5 114q0 61 -21.5 113.5t-58.5 91t-85 60t-101 21.5t-100.5 -19.5t-82.5 -54t-54 -81.5t-19 -101v-399h-195v1106
h-297v184h799v-184h-307v-389q31 35 73 61q37 23 90 42.5t123 19.5z" />
    <glyph glyph-name="uni0403" unicode="&#x403;" horiz-adv-x="942" 
d="M594 1690h174l-174 -246h-123zM348 1106v-1106h-194v1290h768v-184h-574z" />
    <glyph glyph-name="uni0404" unicode="&#x404;" horiz-adv-x="1300" 
d="M686 1300q106 0 197.5 -35.5t162 -95t117.5 -137.5t66 -162h-205q-12 49 -40 96.5t-71 82t-100 56t-127 21.5q-78 0 -148.5 -31.5t-127 -87t-94 -128t-50.5 -152.5h502v-174h-502q12 -78 50 -147.5t94.5 -124t127 -86t148.5 -31.5q74 0 131 19.5t100.5 53t72 78.5
t44.5 95h205q-23 -84 -71 -161t-117.5 -134.5t-161.5 -91t-203 -33.5q-123 0 -234.5 50t-196.5 139t-134 208t-49 258q0 137 50 257t134 209t195.5 139t234.5 50z" />
    <glyph glyph-name="uni0405" unicode="&#x405;" 
d="M82 942q0 70 30.5 134.5t88 114.5t136.5 79.5t175 29.5q92 0 169 -30.5t133 -85t87 -127t31 -156.5h-195q0 100 -62.5 162.5t-162.5 62.5q-53 0 -97 -15t-75 -42t-47.5 -59.5t-16.5 -67.5q0 -68 51.5 -104.5t127 -63t165 -52.5t165 -70t127 -115.5t51.5 -188.5
q0 -70 -32 -134t-90.5 -114.5t-141.5 -80t-187 -29.5t-185 29.5t-138.5 82t-87 126t-29.5 161.5h194q0 -109 61.5 -167t184.5 -58q131 0 193.5 53t62.5 131q0 72 -51 113t-127 68.5t-165 54t-165 68.5t-127 109.5t-51 180.5z" />
    <glyph glyph-name="uni0406" unicode="&#x406;" horiz-adv-x="501" 
d="M348 0h-194v1290h194v-1290z" />
    <glyph glyph-name="uni0407" unicode="&#x407;" horiz-adv-x="573" 
d="M225 1546q0 -47 -32 -80q-33 -33 -80 -32q-47 0 -80 32q-33 33 -33 80t33 80t80 33t80 -33q32 -33 32 -80zM573 1546q0 -47 -32 -80q-33 -33 -80 -32q-47 0 -80 32q-33 33 -33 80t33 80t80 33t80 -33q32 -33 32 -80zM389 0h-194v1290h194v-1290z" />
    <glyph glyph-name="uni0408" unicode="&#x408;" horiz-adv-x="952" 
d="M819 1290v-921q0 -80 -29.5 -149.5t-82 -121t-126 -80t-161.5 -28.5t-162 28.5t-126 80t-82 121t-30 149.5h195q0 -92 56.5 -148.5t148.5 -56.5t148.5 56t56.5 149v921h194z" />
    <glyph glyph-name="uni0409" unicode="&#x409;" horiz-adv-x="1853" 
d="M911 0v1106h-419l-52 -717q-14 -193 -112.5 -296t-245.5 -103q-18 0 -33.5 1t-25.5 3q-12 2 -23 6v164h20q92 0 155 62.5t71 162.5l71 901h789v-471h287q84 0 158.5 -32.5t130 -88t88 -130t32.5 -158.5t-32.5 -159t-88 -130t-130 -88t-158.5 -33h-482zM1106 635v-451h287
q43 0 81.5 17.5t68.5 48.5t47.5 71.5t17.5 88.5q0 45 -17.5 86t-47.5 71.5t-68.5 49t-81.5 18.5h-287z" />
    <glyph glyph-name="uni040A" unicode="&#x40a;" horiz-adv-x="1843" 
d="M901 0v635h-553v-635h-194v1290h194v-471h553v471h195v-471h286q84 0 159 -32.5t130 -88t88 -130t33 -158.5t-33 -159t-88 -130t-130 -88t-159 -33h-481zM1096 635v-451h286q43 0 82 17.5t69 48.5t47 71.5t17 88.5q0 45 -17 86t-47 71.5t-69 49t-82 18.5h-286z" />
    <glyph glyph-name="uni040B" unicode="&#x40b;" horiz-adv-x="1300" 
d="M768 840q88 0 163 -32t130 -89t86 -138t31 -182v-399h-195v399q0 53 -19.5 100.5t-53 82t-79 54t-94.5 19.5t-94 -19.5t-79 -54t-53 -81.5t-19 -101v-399h-195v1106h-297v184h799v-184h-307v-389q33 35 73 61q35 23 86 42.5t117 19.5z" />
    <glyph glyph-name="uni040C" unicode="&#x40c;" horiz-adv-x="1075" 
d="M635 1690h174l-174 -246h-123zM860 0l-512 604v-604h-194v1290h194v-594l471 594h236l-523 -635l564 -655h-236z" />
    <glyph glyph-name="uni040E" unicode="&#x40e;" horiz-adv-x="1044" 
d="M532 1567q47 0 81 31q34 32 42 71h144q-16 -100 -87 -168t-180 -67q-109 0 -179 67q-71 68 -87 168h144q8 -39 42 -71q33 -31 80 -31zM1044 1290l-450 -1024q-68 -154 -139 -220q-72 -67 -179 -66q-47 0 -83 10q-20 4 -39 10v164q10 -4 24 -6q10 -2 26 -3q15 -1 32 -1
q61 0 102 32q41 33 61 80l41 92l-420 932h205l307 -696l308 696h204z" />
    <glyph glyph-name="uni040F" unicode="&#x40f;" horiz-adv-x="1259" 
d="M348 1290v-1106h563v1106h195v-1290h-379v-256h-195v256h-378v1290h194z" />
    <glyph glyph-name="uni0410" unicode="&#x410;" horiz-adv-x="1146" 
d="M205 0h-205l492 1290h163l492 -1290h-205l-113 297h-512zM758 481l-185 512l-184 -512h369z" />
    <glyph glyph-name="uni0411" unicode="&#x411;" horiz-adv-x="1146" 
d="M686 778q84 0 155.5 -28.5t124 -81t81 -124t28.5 -155.5t-28.5 -155.5t-81 -124t-124 -81t-155.5 -28.5h-532v1290h829v-184h-635v-328h338zM348 594v-410h338q86 0 140.5 56.5t54.5 148.5t-54.5 148.5t-140.5 56.5h-338z" />
    <glyph glyph-name="uni0412" unicode="&#x412;" horiz-adv-x="1157" 
d="M901 686q51 -29 92 -74q35 -39 63.5 -98t28.5 -145q0 -74 -30.5 -140.5t-86 -117t-130 -81t-162.5 -30.5h-522v1290h512q76 0 143.5 -28.5t117.5 -77.5t78.5 -113.5t28.5 -138.5q0 -61 -21.5 -107.5t-45.5 -76.5q-29 -37 -66 -62zM348 758h318q78 0 131 52t53 122
t-53.5 122t-130.5 52h-318v-348zM676 184q45 0 85 16.5t68.5 44t45 64.5t16.5 80t-16.5 80t-45 64.5t-68.5 44t-85 16.5h-328v-410h328z" />
    <glyph glyph-name="uni0413" unicode="&#x413;" horiz-adv-x="942" 
d="M348 1106v-1106h-194v1290h768v-184h-574z" />
    <glyph glyph-name="uni0414" unicode="&#x414;" horiz-adv-x="1269" 
d="M1229 184v-440h-185v256h-860v-256h-184v440h74q35 23 63 56q25 29 47.5 69.5t30.5 100.5l102 880h768v-1106h144zM891 1106h-399l-82 -696q-8 -59 -24.5 -100.5t-33.5 -69.5q-20 -33 -45 -56h584v922z" />
    <glyph glyph-name="uni0415" unicode="&#x415;" horiz-adv-x="1126" 
d="M1024 184v-184h-870v1290h850v-184h-656v-348h604v-185h-604v-389h676z" />
    <glyph glyph-name="uni0416" unicode="&#x416;" horiz-adv-x="1546" 
d="M870 1290v-594l420 594h236l-471 -635l512 -655h-236l-461 604v-604h-194v604l-461 -604h-235l512 655l-472 635h236l420 -594v594h194z" />
    <glyph glyph-name="uni0417" unicode="&#x417;" horiz-adv-x="1034" 
d="M82 922q4 80 36 149.5t86 120.5t130 79.5t168 28.5t169 -29.5t133 -79.5t87 -114.5t31 -134.5t-26 -120t-56 -83q-37 -37 -82 -63q57 -27 102 -70q39 -37 71 -98.5t32 -149.5q0 -74 -32 -140t-90.5 -116.5t-141.5 -81t-187 -30.5q-100 0 -180 28.5t-137.5 80t-91 121
t-42.5 149.5h195q16 -86 81.5 -145.5t174.5 -59.5q123 0 189.5 59.5t66.5 145.5t-66.5 145t-189.5 59h-102v175h92q109 0 167 53t58 131q0 86 -58.5 140t-166.5 54q-100 0 -158.5 -56t-67.5 -148h-194z" />
    <glyph glyph-name="uni0418" unicode="&#x418;" horiz-adv-x="1290" 
d="M942 0v922l-625 -922h-163v1290h194v-921l625 921h164v-1290h-195z" />
    <glyph glyph-name="uni0419" unicode="&#x419;" horiz-adv-x="1290" 
d="M942 0v922l-625 -922h-163v1290h194v-921l625 921h164v-1290h-195zM645 1423q-109 0 -179.5 68t-86.5 168h143q8 -47 42 -80t81 -33t81 33t42 80h143q-16 -100 -86.5 -168t-179.5 -68z" />
    <glyph glyph-name="uni041A" unicode="&#x41a;" horiz-adv-x="1075" 
d="M860 0l-512 604v-604h-194v1290h194v-594l471 594h236l-523 -635l564 -655h-236z" />
    <glyph glyph-name="uni041B" unicode="&#x41b;" horiz-adv-x="1290" 
d="M1137 1290v-1290h-195v1106h-450l-52 -717q-14 -193 -112.5 -296t-245.5 -103q-18 0 -33.5 1t-25.5 3q-12 2 -23 6v164h20q92 0 155 62.5t71 162.5l71 901h820z" />
    <glyph glyph-name="uni041C" unicode="&#x41c;" horiz-adv-x="1556" 
d="M1403 1290v-1290h-195v799l-368 -799h-123l-369 799v-799h-194v1290h163l461 -993l461 993h164z" />
    <glyph glyph-name="uni041D" unicode="&#x41d;" horiz-adv-x="1290" 
d="M1137 1290v-1290h-195v563h-594v-563h-194v1290h194v-542h594v542h195z" />
    <glyph glyph-name="uni041E" unicode="&#x41e;" horiz-adv-x="1372" 
d="M1106 645q0 104 -36 192.5t-94 153t-134 100t-156 35.5t-155.5 -35.5t-134 -100t-94.5 -152.5t-36 -193q0 -104 36 -192t94.5 -152.5t134 -100.5t155.5 -36t156 36t134 100.5t94 152.5t36 192zM1300 645q0 -139 -50 -258t-134 -208t-195.5 -139t-234.5 -50t-234.5 50
t-195.5 139t-134 208t-50 258q0 137 50 257t134 209t195.5 139t234.5 50t234.5 -50t195.5 -139t134 -209t50 -257z" />
    <glyph glyph-name="uni041F" unicode="&#x41f;" horiz-adv-x="1300" 
d="M1147 1290v-1290h-195v1106h-604v-1106h-194v1290h993z" />
    <glyph glyph-name="uni0420" unicode="&#x420;" horiz-adv-x="1105" 
d="M625 1290q84 0 158.5 -32.5t130 -88t88 -130t32.5 -158.5t-32.5 -159t-88 -130t-130 -88t-158.5 -33h-277v-471h-194v1290h471zM625 655q43 0 81.5 17.5t68.5 48.5t47.5 72t17.5 88q0 45 -17.5 86t-47.5 71.5t-68.5 49t-81.5 18.5h-277v-451h277z" />
    <glyph glyph-name="uni0421" unicode="&#x421;" horiz-adv-x="1310" 
d="M266 645q0 -104 36 -192t94.5 -152.5t134 -100.5t155.5 -36q74 0 133.5 21.5t104.5 59.5t74.5 88t45.5 107h205q-23 -92 -72 -174t-121.5 -143.5t-165.5 -97t-204 -35.5q-123 0 -234.5 50t-195.5 139t-134 208t-50 258q0 137 50 257t134 209t195.5 139t234.5 50
q106 0 198.5 -35.5t163 -97t120 -143.5t71.5 -174h-205q-16 57 -46 107.5t-74 88t-101 59t-127 21.5q-80 0 -155.5 -35.5t-134 -100t-94.5 -153t-36 -192.5z" />
    <glyph glyph-name="uni0422" unicode="&#x422;" horiz-adv-x="1034" 
d="M31 1290h973v-184h-390v-1106h-194v1106h-389v184z" />
    <glyph glyph-name="uni0423" unicode="&#x423;" horiz-adv-x="1044" 
d="M1044 1290l-450 -1024q-68 -154 -139.5 -220t-178.5 -66q-47 0 -83 10q-20 4 -39 10v164q10 -4 24 -6q10 -2 25.5 -3t32.5 -1q61 0 102 32.5t61 79.5l41 92l-420 932h205l307 -696l308 696h204z" />
    <glyph glyph-name="uni0424" unicode="&#x424;" horiz-adv-x="1505" 
d="M655 993q-88 -4 -158.5 -30.5t-119.5 -71.5t-75 -102.5t-26 -122.5q0 -66 26 -123.5t75 -102.5t119.5 -71.5t158.5 -30.5v655zM850 1167q137 -8 244.5 -48t180.5 -106.5t110.5 -154.5t37.5 -192t-37.5 -192.5t-110.5 -155t-180.5 -106.5t-244.5 -48v-174h-195v174
q-139 8 -245.5 48t-179 106.5t-110.5 154.5t-38 193q0 104 38 192t110.5 154.5t179 106.5t245.5 48v123h195v-123zM850 338q88 4 158.5 30.5t120 71.5t75 102.5t25.5 123.5t-25.5 123t-75 102t-120 71.5t-158.5 30.5v-655z" />
    <glyph glyph-name="uni0425" unicode="&#x425;" horiz-adv-x="1085" 
d="M829 1290h215l-389 -635l410 -655h-215l-307 492l-307 -492h-216l410 655l-389 635h215l287 -471z" />
    <glyph glyph-name="uni0426" unicode="&#x426;" horiz-adv-x="1290" 
d="M1249 184v-440h-184v256h-911v1290h194v-1106h563v1106h195v-1106h143z" />
    <glyph glyph-name="uni0427" unicode="&#x427;" horiz-adv-x="1218" 
d="M1065 1290v-1290h-195v461q-39 -23 -88 -41q-41 -16 -97 -28.5t-122 -12.5q-96 0 -175 31.5t-136 89t-88 138.5t-31 181v471h195v-471q0 -123 69.5 -194.5t186.5 -71.5q57 0 108 12.5t92 28.5q47 18 86 41v655h195z" />
    <glyph glyph-name="uni0428" unicode="&#x428;" horiz-adv-x="1730" 
d="M1577 1290v-1290h-1423v1290h194v-1106h420v1106h195v-1106h419v1106h195z" />
    <glyph glyph-name="uni0429" unicode="&#x429;" horiz-adv-x="1761" 
d="M1720 184v-440h-184v256h-1382v1290h194v-1106h420v1106h195v-1106h419v1106h195v-1106h143z" />
    <glyph glyph-name="uni042A" unicode="&#x42a;" horiz-adv-x="1249" 
d="M307 0v1106h-307v184h502v-471h286q84 0 159 -32.5t130.5 -88t88 -130t32.5 -158.5t-32.5 -159t-88 -130t-130.5 -88t-159 -33h-481zM502 635v-451h286q43 0 82 17.5t69 48.5t47.5 71.5t17.5 88.5q0 45 -17.5 86t-47.5 71.5t-69 49t-82 18.5h-286z" />
    <glyph glyph-name="uni042B" unicode="&#x42b;" horiz-adv-x="1515" 
d="M154 0v1290h194v-471h266q84 0 159 -32.5t130 -88t88 -130t33 -158.5t-33 -159t-88 -130t-130 -88t-159 -33h-460zM348 635v-451h266q43 0 82 17.5t69 48.5t47 71.5t17 88.5q0 45 -17 86t-47 71.5t-69 49t-82 18.5h-266zM1362 0h-195v1290h195v-1290z" />
    <glyph glyph-name="uni042C" unicode="&#x42c;" horiz-adv-x="1095" 
d="M154 0v1290h194v-471h287q84 0 158.5 -32.5t130 -88t88 -130t32.5 -158.5t-32.5 -159t-88 -130t-130 -88t-158.5 -33h-481zM348 635v-451h287q43 0 82 17.5t68.5 48.5t47 71.5t17.5 88.5q0 45 -17.5 86t-47 71.5t-68.5 49t-82 18.5h-287z" />
    <glyph glyph-name="uni042D" unicode="&#x42d;" horiz-adv-x="1300" 
d="M614 1300q123 0 235 -50t195.5 -139t134 -209t50.5 -257q0 -139 -49.5 -258t-134 -208t-196.5 -139t-235 -50q-111 0 -203 33.5t-161.5 91t-117.5 134.5t-71 161h205q14 -49 44 -94.5t73 -79t100.5 -53t130.5 -19.5q76 0 148 31.5t128 86t94 124t50 147.5h-502v174h502
q-12 80 -50 152.5t-94 128t-128 87t-148 31.5q-70 0 -127 -21.5t-100 -56t-70.5 -81.5t-40.5 -97h-204q18 84 65 162t118 137.5t160.5 95t198.5 35.5z" />
    <glyph glyph-name="uni042E" unicode="&#x42e;" horiz-adv-x="1761" 
d="M1096 1300q115 0 220 -49t186 -136t129 -208t48 -262t-48 -262t-129 -208t-186.5 -136t-219.5 -49q-109 0 -207 45t-176 120.5t-128 176t-63 211.5h-174v-543h-194v1290h194v-563h174q12 119 62.5 223.5t128.5 182t176 122.5t207 45zM1096 1126q-74 0 -143.5 -34.5
t-124 -98t-88 -152.5t-33.5 -196q0 -109 33.5 -197t88 -151.5t124 -98t143.5 -34.5t143.5 34.5t123.5 98t88 152t34 196.5q0 106 -34 195.5t-88 153t-123.5 98t-143.5 34.5z" />
    <glyph glyph-name="uni042F" unicode="&#x42f;" horiz-adv-x="1146" 
d="M276 0h-215l318 532q-78 25 -139 76q-53 41 -95.5 113t-42.5 180q0 80 31 151.5t83 124t124 83t152 30.5h501v-1290h-194v512h-226zM799 1106h-307q-39 0 -74 -16.5t-61.5 -44t-43 -64.5t-16.5 -80t16.5 -80t43 -64.5t61.5 -44t74 -16.5h307v410z" />
    <glyph glyph-name="uni0430" unicode="&#x430;" horiz-adv-x="952" 
d="M481 932q80 0 146.5 -25.5t113.5 -69.5t73 -103.5t26 -129.5v-604h-133l-41 92q-27 -29 -64 -51q-33 -20 -83 -35.5t-120 -15.5q-154 0 -235.5 76.5t-81.5 199.5q0 70 26.5 126.5t91 96t175 62t280.5 22.5v31q0 70 -44 112t-130 42q-92 0 -134 -33t-50 -80h-184
q8 123 103 205t265 82zM410 154q117 0 181 60t64 146v50q-123 0 -198.5 -11.5t-118.5 -31t-57.5 -48t-14.5 -63.5q0 -39 37 -70.5t107 -31.5z" />
    <glyph glyph-name="uni0431" unicode="&#x431;" horiz-adv-x="1044" 
d="M553 891q84 0 161 -35t134 -95.5t91 -142t34 -178.5q0 -96 -34 -178t-94.5 -142.5t-140 -95t-172.5 -34.5q-96 0 -178 35.5t-142 108.5t-95 180.5t-35 248.5q0 199 40 338t131 227.5t239.5 131.5t367.5 51v-185q-166 -4 -273.5 -27.5t-172 -69.5t-95 -115.5t-43.5 -165.5
q27 39 66 71q35 27 86 49.5t125 22.5zM532 164q49 0 96.5 21.5t82 59.5t56 88t21.5 107t-21.5 107.5t-56 88.5t-81.5 59.5t-97 21.5q-49 0 -96 -21.5t-82 -59.5t-56.5 -88t-21.5 -108q0 -57 21.5 -107t56.5 -88t82 -59.5t96 -21.5z" />
    <glyph glyph-name="uni0432" unicode="&#x432;" horiz-adv-x="931" 
d="M727 481q37 -18 66 -49q25 -27 46 -67.5t21 -98.5q0 -57 -20.5 -106t-56 -84t-87 -55.5t-112.5 -20.5h-461v922h430q61 0 112.5 -19.5t87 -54.5t56 -82t20.5 -100q0 -51 -16 -85t-35 -57q-22 -25 -51 -43zM307 768v-225h225q47 0 80 32.5t33 79.5t-32.5 80t-80.5 33h-225
zM563 154q47 0 80 34.5t33 87.5q0 47 -33 80t-80 33h-256v-235h256z" />
    <glyph glyph-name="uni0433" unicode="&#x433;" horiz-adv-x="768" 
d="M748 748h-441v-748h-184v922h625v-174z" />
    <glyph glyph-name="uni0434" unicode="&#x434;" 
d="M983 174v-389h-174v215h-635v-215h-174v389h61q29 20 52 45q20 23 38.5 54.5t22.5 74.5l62 574h624v-748h123zM358 348q-4 -43 -16 -74.5t-25 -54.5q-14 -25 -30 -45h389v574h-277z" />
    <glyph glyph-name="uni0435" unicode="&#x435;" horiz-adv-x="1013" 
d="M922 266q-23 -57 -58 -107t-84 -88t-113.5 -59.5t-144.5 -21.5q-92 0 -172 34.5t-140 97t-94 148.5t-34 191q0 104 34 190t92 148.5t137 97.5t167 35t167 -35t137 -97.5t92 -148.5t34 -190q0 -16 -2 -31.5t-4 -26.5q-2 -14 -4 -24h-656q4 -43 25 -82t52.5 -68.5t75.5 -47
t93 -17.5q84 0 133.5 36t71.5 66h195zM512 758q-92 0 -155.5 -62.5t-80.5 -163.5h492q-16 100 -81.5 163t-174.5 63z" />
    <glyph glyph-name="uni0436" unicode="&#x436;" horiz-adv-x="1249" 
d="M532 440l-327 -440h-225l378 492l-338 430h216l296 -400v400h185v-400l297 400h215l-338 -430l379 -492h-226l-327 440v-440h-185v440z" />
    <glyph glyph-name="uni0437" unicode="&#x437;" horiz-adv-x="819" 
d="M623 471q35 -18 61 -47q23 -25 43.5 -61.5t20.5 -86.5q0 -123 -88.5 -204.5t-249.5 -81.5q-170 0 -255 80t-94 227h185q8 -61 47 -97t117 -36q86 0 124.5 32.5t38.5 79.5t-38.5 80t-124.5 33h-82v164h82q78 0 110.5 31.5t32.5 70.5t-33 71t-110 32q-70 0 -108 -33
t-46 -80h-184q8 131 92 209t246 78q74 0 132 -21.5t99 -59.5t63.5 -88t22.5 -108q0 -47 -16.5 -81.5t-36.5 -57.5q-22 -27 -51 -45z" />
    <glyph glyph-name="uni0438" unicode="&#x438;" horiz-adv-x="1054" 
d="M932 922v-922h-184v645l-441 -645h-184v922h184v-646l441 646h184z" />
    <glyph glyph-name="uni0439" unicode="&#x439;" horiz-adv-x="1054" 
d="M932 922v-922h-184v645l-441 -645h-184v922h184v-646l441 646h184zM522 1055q-109 0 -179.5 67.5t-86.5 167.5h143q8 -47 42 -79.5t81 -32.5t81 32.5t42 79.5h143q-16 -100 -86.5 -167.5t-179.5 -67.5z" />
    <glyph glyph-name="uni043A" unicode="&#x43a;" horiz-adv-x="880" 
d="M676 0l-359 440v-440h-184v922h184v-400l318 400h215l-358 -430l409 -492h-225z" />
    <glyph glyph-name="uni043B" unicode="&#x43b;" horiz-adv-x="1003" 
d="M881 922v-922h-185v748h-307l-31 -441q-10 -154 -87.5 -235.5t-209.5 -81.5q-12 0 -22 1t-21 3q-10 2 -18 6v154h20q141 0 154 153l51 615h656z" />
    <glyph glyph-name="uni043C" unicode="&#x43c;" horiz-adv-x="1228" 
d="M553 0l-246 512v-512h-184v922h164l327 -676l328 676h164v-922h-184v512l-246 -512h-123z" />
    <glyph glyph-name="uni043D" unicode="&#x43d;" horiz-adv-x="1054" 
d="M932 922v-922h-184v379h-441v-379h-184v922h184v-369h441v369h184z" />
    <glyph glyph-name="uni043E" unicode="&#x43e;" 
d="M768 461q0 66 -21.5 120t-56.5 94t-82 61.5t-96 21.5t-96 -21.5t-82 -61.5t-56.5 -94.5t-21.5 -119.5q0 -66 21.5 -120t56.5 -94t82 -61.5t96 -21.5t96 21.5t82 61.5t56.5 94t21.5 120zM952 461q0 -104 -33.5 -190.5t-94 -149t-140.5 -97t-172 -34.5t-172 34.5t-140.5 97
t-94 148.5t-33.5 191q0 104 33.5 190t94 148.5t140.5 97.5t172 35t172 -35t140.5 -97.5t94 -148.5t33.5 -190z" />
    <glyph glyph-name="uni043F" unicode="&#x43f;" horiz-adv-x="1054" 
d="M932 922v-922h-184v748h-441v-748h-184v922h809z" />
    <glyph glyph-name="uni0440" unicode="&#x440;" horiz-adv-x="1075" 
d="M563 932q92 0 172 -35t140.5 -97.5t94.5 -148.5t34 -190t-34 -190.5t-94.5 -149t-140.5 -97t-172 -34.5q-66 0 -113 15t-79 36q-37 23 -64 51v-420h-184v1250h133l41 -93q27 29 63 52q33 18 83 34.5t120 16.5zM553 164q53 0 101 21.5t85 61.5t58.5 94t21.5 120t-21.5 120
t-58.5 94t-85 61.5t-101 21.5t-101.5 -21.5t-85 -61.5t-58 -94.5t-21.5 -119.5q0 -66 21.5 -120t58 -94t85 -61.5t101.5 -21.5z" />
    <glyph glyph-name="uni0441" unicode="&#x441;" horiz-adv-x="983" 
d="M922 338q-16 -74 -51 -137.5t-88.5 -110.5t-122 -73.5t-148.5 -26.5q-92 0 -172 34.5t-140.5 97t-94 148.5t-33.5 191q0 104 33.5 190t94 148.5t140.5 97.5t172 35q80 0 148.5 -26.5t122 -74t88 -111t51.5 -136.5h-195q-23 78 -76 126t-139 48q-49 0 -96 -21.5t-82 -61.5
t-56.5 -94.5t-21.5 -119.5q0 -66 21.5 -120t56.5 -94t82 -61.5t96 -21.5q86 0 139.5 48t75.5 126h195z" />
    <glyph glyph-name="uni0442" unicode="&#x442;" horiz-adv-x="819" 
d="M31 922h757v-174h-286v-748h-185v748h-286v174z" />
    <glyph glyph-name="uni0443" unicode="&#x443;" horiz-adv-x="942" 
d="M20 922h195l256 -666l256 666h195l-390 -983q-31 -78 -60.5 -130.5t-64 -85t-76.5 -47t-95 -14.5q-12 0 -22.5 1t-20.5 3t-19 6v154q78 0 118 32.5t56 80.5l31 92z" />
    <glyph glyph-name="uni0444" unicode="&#x444;" horiz-adv-x="1536" 
d="M676 1290h184v-420q25 16 55 31q27 10 62 20.5t78 10.5q80 0 154.5 -35t131 -97.5t90 -148.5t33.5 -190t-33.5 -190.5t-90 -149t-131 -97t-154.5 -34.5q-43 0 -78 9t-62 21q-31 12 -55 31v-379h-184v379q-25 -18 -55 -31q-27 -12 -63 -21t-77 -9q-80 0 -154.5 34.5
t-131 97t-90 148.5t-33.5 191q0 104 33.5 190t90 148.5t131 97.5t154.5 35q41 0 77 -10.5t63 -20.5q31 -14 55 -31v420zM676 676q-23 23 -49 41q-23 16 -54.5 28.5t-70.5 12.5q-49 0 -94.5 -20.5t-79 -59.5t-53 -93.5t-19.5 -123.5q0 -70 19.5 -125t53 -93t79 -58.5
t94.5 -20.5q39 0 70.5 12t54.5 29q27 18 49 41v430zM860 246q23 -23 49 -41q23 -16 54.5 -28.5t70.5 -12.5q49 0 94.5 20.5t79 58.5t53 93t19.5 125t-19.5 124t-53 93t-79 59.5t-94.5 20.5q-39 0 -70.5 -12.5t-54.5 -28.5q-27 -18 -49 -41v-430z" />
    <glyph glyph-name="uni0445" unicode="&#x445;" horiz-adv-x="860" 
d="M205 0h-205l317 471l-297 451h205l205 -308l205 308h205l-297 -451l317 -471h-205l-225 338z" />
    <glyph glyph-name="uni0446" unicode="&#x446;" horiz-adv-x="1075" 
d="M1034 174v-389h-174v215h-737v922h184v-748h420v748h184v-748h123z" />
    <glyph glyph-name="uni0447" unicode="&#x447;" horiz-adv-x="993" 
d="M870 922v-922h-184v328q-35 -18 -74 -31q-35 -12 -82 -21.5t-100 -9.5q-74 0 -134 23.5t-103 68.5t-67 106.5t-24 139.5v318h185v-318q0 -78 49 -126t135 -48q47 0 86 9.5t68 21.5q35 12 61 31v430h184z" />
    <glyph glyph-name="uni0448" unicode="&#x448;" horiz-adv-x="1413" 
d="M1290 922v-922h-1167v922h184v-748h307v748h185v-748h307v748h184z" />
    <glyph glyph-name="uni0449" unicode="&#x449;" horiz-adv-x="1454" 
d="M1239 -215v215h-1116v922h184v-748h307v748h185v-748h307v748h184v-748h123v-389h-174z" />
    <glyph glyph-name="uni044A" unicode="&#x44a;" horiz-adv-x="1003" 
d="M635 614q70 0 128 -23.5t100 -64.5t65.5 -97t23.5 -122t-23.5 -122t-65.5 -97t-100 -64.5t-128 -23.5h-410v748h-225v174h410v-308h225zM635 174q53 0 93 40t40 93t-40 93t-93 40h-225v-266h225z" />
    <glyph glyph-name="uni044B" unicode="&#x44b;" horiz-adv-x="1259" 
d="M1137 922v-922h-185v922h185zM512 614q70 0 128 -23.5t100 -64.5t65.5 -97t23.5 -122t-23.5 -122t-65.5 -97t-100 -64.5t-128 -23.5h-389v922h184v-308h205zM512 174q53 0 93 40t40 93t-40 93t-93 40h-205v-266h205z" />
    <glyph glyph-name="uni044C" unicode="&#x44c;" horiz-adv-x="901" 
d="M532 614q70 0 128.5 -23.5t100.5 -64.5t65.5 -97t23.5 -122t-23.5 -122t-65.5 -97t-100.5 -64.5t-128.5 -23.5h-409v922h184v-308h225zM532 174q53 0 93.5 40t40.5 93t-40 93t-94 40h-225v-266h225z" />
    <glyph glyph-name="uni044D" unicode="&#x44d;" horiz-adv-x="972" 
d="M461 932q92 0 172 -35t140.5 -97.5t94 -148.5t33.5 -190t-33.5 -190.5t-94 -149t-140.5 -97t-172 -34.5q-80 0 -148.5 26.5t-121 71.5t-85 104.5t-45.5 124.5h195q16 -61 67.5 -107t137.5 -46q45 0 87 17.5t74.5 47t54 68.5t30.5 82h-308v153h308q-8 45 -30 86t-54.5 72
t-74.5 49.5t-87 18.5q-86 0 -137.5 -46t-67.5 -108h-195q12 66 45 125t85.5 104.5t121 72t148.5 26.5z" />
    <glyph glyph-name="uni044E" unicode="&#x44e;" horiz-adv-x="1372" 
d="M870 932q84 0 161 -35t134.5 -97.5t91 -148.5t33.5 -190t-33.5 -190.5t-91 -149t-134.5 -97t-161 -34.5q-80 0 -150.5 28.5t-123.5 80t-88 121t-47 149.5h-154v-369h-184v922h184v-379h154q12 84 47 155.5t88 123.5t123.5 81t150.5 29zM870 164q43 0 85 21.5t76 61.5
t54.5 94t20.5 120t-20.5 120t-54.5 94t-76 61.5t-85 21.5t-85 -21.5t-75.5 -61.5t-54 -94.5t-20.5 -119.5q0 -66 20.5 -120t54 -94t75.5 -61.5t85 -21.5z" />
    <glyph glyph-name="uni044F" unicode="&#x44f;" horiz-adv-x="952" 
d="M829 922v-922h-184v307h-184l-195 -307h-205l215 338q-53 20 -92 57q-35 33 -63.5 85t-28.5 134q0 66 23.5 122.5t65.5 97t100.5 64.5t128.5 24h419zM410 748q-53 0 -93.5 -40t-40.5 -94q0 -53 40 -93t94 -40h235v267h-235z" />
    <glyph glyph-name="uni0451" unicode="&#x451;" horiz-adv-x="1013" 
d="M451 1178q0 -47 -33 -80t-80 -33t-80 32.5t-33 80.5q0 47 33 79.5t80 32.5t80 -32.5t33 -79.5zM799 1178q0 -47 -33 -80t-80 -33t-80 32.5t-33 80.5q0 47 33 79.5t80 32.5t80 -32.5t33 -79.5zM922 266q-23 -57 -58 -107t-84 -88t-113.5 -59.5t-144.5 -21.5
q-92 0 -172 34.5t-140 97t-94 148.5t-34 191q0 104 34 190t92 148.5t137 97.5t167 35t167 -35t137 -97.5t92 -148.5t34 -190q0 -16 -2 -31.5t-4 -26.5q-2 -14 -4 -24h-656q4 -43 25 -82t52.5 -68.5t75.5 -47t93 -17.5q84 0 133.5 36t71.5 66h195zM512 758
q-92 0 -155.5 -62.5t-80.5 -163.5h492q-16 100 -81.5 163t-174.5 63z" />
    <glyph glyph-name="uni0452" unicode="&#x452;" horiz-adv-x="1044" 
d="M563 676q-47 0 -88 -18.5t-71.5 -49t-48 -71.5t-17.5 -86v-451h-184v973h-154v164h154v153h184v-153h256v-164h-256v-225q29 29 65 51q33 18 81 34.5t110 16.5q76 0 145.5 -32t120.5 -91t82 -145t31 -193q0 -119 -31 -211t-88 -154.5t-136 -94t-175 -31.5v174
q49 0 94 20.5t79 61.5t53 99t19 136q0 66 -19 119t-51 90t-72 57.5t-83 20.5z" />
    <glyph glyph-name="uni0453" unicode="&#x453;" horiz-adv-x="768" 
d="M496 1311h174l-174 -246h-123zM748 748h-441v-748h-184v922h625v-174z" />
    <glyph glyph-name="uni0454" unicode="&#x454;" horiz-adv-x="972" 
d="M512 932q80 0 148.5 -26.5t121 -72t85 -104.5t44.5 -125h-194q-16 61 -67.5 107.5t-137.5 46.5q-47 0 -88 -18.5t-74 -49.5t-54.5 -71.5t-29.5 -86.5h307v-153h-307q8 -43 29.5 -82t54.5 -68.5t74 -47t88 -17.5q86 0 137 46t68 107h194q-12 -66 -44.5 -125t-85 -104
t-121 -71.5t-148.5 -26.5q-92 0 -172 34.5t-140.5 97t-94 148.5t-33.5 191q0 104 33.5 190t94 148.5t140.5 97.5t172 35z" />
    <glyph glyph-name="uni0455" unicode="&#x455;" horiz-adv-x="829" 
d="M256 297q8 -61 47 -97t117 -36q86 0 125 32.5t39 79.5q0 41 -37 62.5t-91.5 36t-118 30t-117.5 44t-91 76.5t-37 130q0 57 22.5 107.5t63.5 88.5t99.5 59.5t132.5 21.5q162 0 245.5 -78t92.5 -209h-185q-8 47 -46 80t-107 33q-70 0 -107 -32t-37 -71q0 -41 37 -62.5
t91.5 -35.5t117.5 -29.5t117.5 -44t91.5 -77t37 -130.5q0 -123 -88 -204.5t-250 -81.5q-170 0 -255 80t-93 227h184z" />
    <glyph glyph-name="uni0456" unicode="&#x456;" horiz-adv-x="430" 
d="M307 0h-184v922h184v-922zM215 1065q-47 0 -80 32.5t-33 80.5q0 47 33 79.5t80 32.5t80 -32.5t33 -79.5t-33 -80t-80 -33z" />
    <glyph glyph-name="uni0457" unicode="&#x457;" horiz-adv-x="450" 
d="M317 0h-184v922h184v-922zM164 1178q0 -47 -33 -80t-80 -33t-79.5 32.5t-32.5 80.5q0 47 32.5 79.5t79.5 32.5t80 -32.5t33 -79.5zM512 1178q0 -47 -33 -80t-80 -33t-79.5 32.5t-32.5 80.5q0 47 32.5 79.5t79.5 32.5t80 -32.5t33 -79.5z" />
    <glyph glyph-name="uni0458" unicode="&#x458;" horiz-adv-x="430" 
d="M123 922h184v-942q0 -74 -21.5 -132.5t-60.5 -99.5t-91 -63.5t-114 -22.5q-43 0 -73 10q-16 4 -29 11v163q8 -4 19 -6q10 -2 20 -3t23 -1q61 0 102 41t41 103v942zM215 1065q-47 0 -80 32.5t-33 80.5q0 47 33 79.5t80 32.5t80 -32.5t33 -79.5t-33 -80t-80 -33z" />
    <glyph glyph-name="uni0459" unicode="&#x459;" horiz-adv-x="1423" 
d="M1065 594q66 0 122 -23.5t97 -63.5t64.5 -94.5t23.5 -115.5t-23.5 -115.5t-64.5 -94.5t-97.5 -63.5t-121.5 -23.5h-410v748h-266l-31 -441q-10 -154 -87.5 -235.5t-209.5 -81.5q-12 0 -22 1t-21 3q-10 2 -18 6v154h20q141 0 154 153l51 615h615v-328h225zM1065 174
q53 0 88 35t35 88t-35 88t-88 35h-225v-246h225z" />
    <glyph glyph-name="uni045A" unicode="&#x45a;" horiz-adv-x="1474" 
d="M891 922v-328h225q66 0 122 -23.5t97 -63.5t64.5 -94.5t23.5 -115.5t-23.5 -115.5t-64.5 -94.5t-97 -63.5t-122 -23.5h-409v420h-400v-420h-184v922h184v-328h400v328h184zM1116 174q53 0 88 35t35 88t-35 88t-88 35h-225v-246h225z" />
    <glyph glyph-name="uni045B" unicode="&#x45b;" horiz-adv-x="1075" 
d="M594 850q76 0 143.5 -29.5t117.5 -82t79 -126t29 -161.5v-451h-185v451q0 45 -17.5 86t-47 71.5t-68.5 49t-82 18.5q-47 0 -88 -18.5t-71.5 -49t-48 -71.5t-17.5 -86v-451h-184v973h-154v164h154v153h184v-153h256v-164h-256v-225q29 29 65 51q33 18 81.5 34.5
t109.5 16.5z" />
    <glyph glyph-name="uni045C" unicode="&#x45c;" horiz-adv-x="870" 
d="M522 1311h174l-174 -246h-123zM666 0l-359 440v-440h-184v922h184v-400l318 400h215l-359 -430l410 -492h-225z" />
    <glyph glyph-name="uni045E" unicode="&#x45e;" horiz-adv-x="942" 
d="M471 1188q47 0 81 32t42 70h143q-16 -100 -87 -168t-179 -67q-109 0 -179 67q-71 68 -87 168h143q8 -39 42 -70q34 -32 81 -32zM20 922h195l256 -666l256 666h195l-390 -983q-31 -78 -60 -130q-30 -52 -64 -85q-35 -33 -77 -48q-42 -14 -95 -14q-12 0 -23 1q-10 1 -20 3
t-19 6v154q78 0 118 33t56 80l31 92z" />
    <glyph glyph-name="uni045F" unicode="&#x45f;" horiz-adv-x="1034" 
d="M911 0h-307v-215h-174v215h-307v922h184v-748h420v748h184v-922z" />
    <glyph glyph-name="uni0490" unicode="&#x490;" horiz-adv-x="942" 
d="M922 1536v-430h-574v-1106h-194v1290h594v246h174z" />
    <glyph glyph-name="uni0491" unicode="&#x491;" horiz-adv-x="768" 
d="M748 1126v-378v0h-441v-748h-184v922h450v204h175z" />
    <glyph glyph-name="uni1E9E" unicode="&#x1e9e;" horiz-adv-x="1239" 
d="M850 758q86 -18 154 -66q57 -41 105 -112.5t48 -190.5q0 -80 -30.5 -151.5t-85 -124t-127 -83t-156.5 -30.5h-113v184h113q86 0 145.5 59.5t59.5 145.5q0 43 -16.5 80t-44.5 64.5t-63.5 44t-76.5 16.5h-117v164l225 338h-327q-86 0 -140.5 -53.5t-54.5 -131.5v-911h-194
v911q0 76 30.5 145.5t82.5 121t124 82t152 30.5h542v-174z" />
    <glyph glyph-name="endash" unicode="&#x2013;" horiz-adv-x="962" 
d="M901 440h-840v164h840v-164z" />
    <glyph glyph-name="emdash" unicode="&#x2014;" horiz-adv-x="1464" 
d="M1403 440h-1342v164h1342v-164z" />
    <glyph glyph-name="quoteleft" unicode="&#x2018;" horiz-adv-x="348" 
d="M174 891q-47 0 -80 35t-33 88q0 78 26 131t56 88q37 39 82 67l31 -40q-20 -14 -39 -37q-16 -18 -30.5 -45t-22.5 -62q53 0 88 -32.5t35 -79.5t-33 -80t-80 -33z" />
    <glyph glyph-name="quoteright" unicode="&#x2019;" horiz-adv-x="348" 
d="M174 1300q47 0 80 -34.5t33 -87.5q0 -78 -25.5 -132.5t-56.5 -89.5q-37 -41 -82 -65l-31 41q20 14 39 37q16 18 30.5 44.5t22.5 61.5q-53 0 -88 33t-35 80t33 79.5t80 32.5z" />
    <glyph glyph-name="quotesinglbase" unicode="&#x201a;" horiz-adv-x="348" 
d="M174 215q47 0 80 -35t33 -88q0 -78 -25.5 -132t-56.5 -89q-37 -41 -82 -66l-31 41q20 14 39 37q16 18 30.5 45t22.5 62q-53 0 -88 32.5t-35 79.5t33 80t80 33z" />
    <glyph glyph-name="quotedblleft" unicode="&#x201c;" horiz-adv-x="645" 
d="M471 891q-47 0 -80 35t-33 88q0 78 26 131t56 88q37 39 82 67l31 -40q-20 -14 -39 -37q-16 -18 -30.5 -45t-22.5 -62q53 0 88 -32.5t35 -79.5t-33 -80t-80 -33zM174 891q-47 0 -80 35t-33 88q0 78 26 131t56 88q37 39 82 67l31 -40q-20 -14 -39 -37q-16 -18 -30.5 -45
t-22.5 -62q53 0 88 -32.5t35 -79.5t-33 -80t-80 -33z" />
    <glyph glyph-name="quotedblright" unicode="&#x201d;" horiz-adv-x="645" 
d="M174 1300q47 0 80 -34.5t33 -87.5q0 -78 -25.5 -132.5t-56.5 -89.5q-37 -41 -82 -65l-31 41q20 14 39 37q16 18 30.5 44.5t22.5 61.5q-53 0 -88 33t-35 80t33 79.5t80 32.5zM471 1300q47 0 80 -34.5t33 -87.5q0 -78 -26 -132.5t-56 -89.5q-37 -41 -82 -65l-31 41
q20 14 39 37q16 18 30.5 44.5t22.5 61.5q-53 0 -88 33t-35 80t33 79.5t80 32.5z" />
    <glyph glyph-name="quotedblbase" unicode="&#x201e;" horiz-adv-x="645" 
d="M174 215q47 0 80 -35t33 -88q0 -78 -25.5 -132t-56.5 -89q-37 -41 -82 -66l-31 41q20 14 39 37q16 18 30.5 45t22.5 62q-53 0 -88 32.5t-35 79.5t33 80t80 33zM471 215q47 0 80 -35t33 -88q0 -78 -26 -132t-56 -89q-37 -41 -82 -66l-31 41q20 14 39 37q16 18 30.5 45
t22.5 62q-53 0 -88 32.5t-35 79.5t33 80t80 33z" />
    <glyph glyph-name="dagger" unicode="&#x2020;" horiz-adv-x="716" 
d="M645 901h-215v-532h-143v532h-215v143h215v246h143v-246h215v-143z" />
    <glyph glyph-name="daggerdbl" unicode="&#x2021;" horiz-adv-x="716" 
d="M72 1055h215v235h143v-235h215v-133h-215v-185h215v-133h-215v-235h-143v235h-215v133h215v185h-215v133z" />
    <glyph glyph-name="bullet" unicode="&#x2022;" horiz-adv-x="798" 
d="M604 553q0 -86 -59.5 -145.5t-145.5 -59.5t-145 59.5t-59 145.5t59 145.5t145 59.5t145.5 -59.5t59.5 -145.5z" />
    <glyph glyph-name="ellipsis" unicode="&#x2026;" horiz-adv-x="1167" 
d="M287 102q0 -47 -33 -79.5t-80 -32.5t-80 32.5t-33 79.5t33 80t80 33t80 -33t33 -80zM696 102q0 -47 -32.5 -79.5t-79.5 -32.5t-80 32.5t-33 79.5t33 80t80 33t79.5 -33t32.5 -80zM1106 102q0 -47 -33 -79.5t-80 -32.5t-79.5 32.5t-32.5 79.5t32.5 80t79.5 33t80 -33
t33 -80z" />
    <glyph glyph-name="perthousand" unicode="&#x2030;" horiz-adv-x="1873" 
d="M164 0l788 1290h144l-789 -1290h-143zM184 1024q0 -31 12.5 -58.5t33 -49t46 -34t52.5 -12.5t52.5 12.5t45.5 34t32.5 49t12.5 58.5t-12.5 58.5t-32.5 49t-46 34t-52 12.5q-27 0 -52.5 -12.5t-46 -34t-33 -49t-12.5 -58.5zM594 1024q0 -53 -21.5 -101.5t-58.5 -85
t-85 -58t-101 -21.5t-101.5 21.5t-85.5 58t-58.5 85t-21.5 101.5t21.5 101.5t58.5 85t85 58t102 21.5q53 0 101 -21.5t85 -58t58.5 -85t21.5 -101.5zM1065 266q0 31 -12.5 58.5t-33 49t-46 34t-51.5 12.5q-27 0 -52.5 -12.5t-46 -34t-33 -49t-12.5 -58.5t12.5 -58.5t33 -49
t46 -33.5t52.5 -12t52 12t45.5 33.5t33 49t12.5 58.5zM655 266q0 53 21.5 101.5t58.5 85t85 58t102 21.5q53 0 101 -21.5t85 -58t58.5 -85t21.5 -101.5t-21.5 -101t-58.5 -85t-85 -58.5t-101 -21.5t-101.5 21.5t-85.5 58.5t-58.5 85t-21.5 101zM1690 266q0 31 -12.5 58.5
t-33 49t-46 34t-52.5 12.5t-52.5 -12.5t-46 -34t-32.5 -49t-12 -58.5t12 -58.5t32.5 -49t46.5 -33.5t52 -12q27 0 52.5 12t46 33.5t33 49t12.5 58.5zM1280 266q0 53 21.5 101.5t58.5 85t85 58t101 21.5t101.5 -21.5t85 -58t58 -85t21.5 -101.5t-21.5 -101t-58 -85t-85 -58.5
t-101.5 -21.5t-101 21.5t-85 58.5t-58.5 85t-21.5 101z" />
    <glyph glyph-name="guilsinglleft" unicode="&#x2039;" horiz-adv-x="532" 
d="M471 133h-184l-226 328l226 327h184l-225 -327z" />
    <glyph glyph-name="guilsinglright" unicode="&#x203a;" horiz-adv-x="532" 
d="M287 461l-226 327h185l225 -327l-225 -328h-185z" />
    <glyph glyph-name="fraction" unicode="&#x2044;" horiz-adv-x="194" 
d="M-369 0l789 1290h143l-788 -1290h-144z" />
    <glyph glyph-name="uni2070" unicode="&#x2070;" horiz-adv-x="614" 
d="M430 1171q0 104 -38 151.5t-85 47.5t-85 -47t-38 -152q0 -104 38 -151t85 -47t85 47t38 151zM553 1171q0 -74 -19.5 -132t-53.5 -98t-79 -60.5t-94 -20.5t-94 20.5t-79 60.5t-53.5 98.5t-19.5 131.5q0 74 19.5 132.5t53.5 98.5t79 60.5t94 20.5t94 -20.5t79 -60.5
t53.5 -98.5t19.5 -132.5z" />
    <glyph glyph-name="uni2074" unicode="&#x2074;" horiz-adv-x="512" 
d="M389 1096h72v-113h-72v-113h-123v113h-256v92l246 400h133v-379zM266 1096v194l-123 -194h123z" />
    <glyph glyph-name="uni2075" unicode="&#x2075;" horiz-adv-x="563" 
d="M307 1280q86 0 140.5 -56.5t54.5 -148.5t-61.5 -153.5t-153.5 -61.5t-150.5 53.5t-75.5 130.5h123q8 -31 32 -51t71 -20q39 0 65.5 27.5t26.5 74.5t-26.5 75t-65.5 28q-47 0 -70.5 -19.5t-32.5 -42.5h-102l41 359h338v-113h-236l-10 -102q8 4 23 10q10 4 28 7t41 3z" />
    <glyph glyph-name="uni2076" unicode="&#x2076;" horiz-adv-x="542" 
d="M276 1280q45 0 85 -16.5t69 -44t45.5 -64.5t16.5 -80q0 -92 -61.5 -153.5t-154.5 -61.5q-92 0 -153.5 61.5t-61.5 153.5q0 39 14.5 77t30.5 69q20 37 48 69l122 185h134zM276 1178q-39 0 -65.5 -28t-26.5 -75t27 -74.5t65 -27.5q39 0 66 27.5t27 74.5t-27 75t-66 28z" />
    <glyph glyph-name="uni2077" unicode="&#x2077;" horiz-adv-x="481" 
d="M72 1475h399v-72l-246 -533h-123l226 492h-256v113z" />
    <glyph glyph-name="uni2078" unicode="&#x2078;" horiz-adv-x="532" 
d="M266 860q-92 0 -148.5 53.5t-56.5 130.5q0 39 12.5 67t28.5 44q18 20 41 33q-18 12 -30 31q-12 16 -21.5 38.5t-9.5 53.5q0 70 53 122t131 52t131.5 -52.5t53.5 -121.5q0 -31 -10.5 -53.5t-20.5 -38.5q-14 -18 -31 -31q23 -12 41 -33q16 -16 28.5 -44t12.5 -67
q0 -78 -56.5 -131t-148.5 -53zM266 1372q-31 0 -51 -20.5t-20 -48.5q0 -25 20.5 -44.5t50.5 -19.5q31 0 51.5 19.5t20.5 44.5q0 29 -20.5 49t-51.5 20zM266 1137q-39 0 -60.5 -26t-21.5 -56q0 -31 21.5 -56.5t60.5 -25.5t60.5 25.5t21.5 56.5t-21.5 56.5t-60.5 25.5z" />
    <glyph glyph-name="uni2079" unicode="&#x2079;" horiz-adv-x="542" 
d="M266 1065q-47 0 -86 16.5t-67.5 44t-45 64.5t-16.5 80q0 92 61.5 153.5t153.5 61.5t153.5 -61.5t61.5 -153.5q0 -39 -15 -77t-32 -69q-20 -37 -45 -69l-123 -185h-133zM266 1167q39 0 65.5 28t26.5 75t-26.5 74.5t-65.5 27.5t-65.5 -27.5t-26.5 -74.5t26.5 -75t65.5 -28z
" />
    <glyph glyph-name="uni2080" unicode="&#x2080;" horiz-adv-x="614" 
d="M430 106q0 104 -38 151.5t-85 47.5t-85 -47t-38 -152q0 -104 38 -151t85 -47t85 47t38 151zM553 106q0 -74 -19.5 -132t-53.5 -98t-79 -60.5t-94 -20.5t-94 20.5t-79 60.5t-53.5 98.5t-19.5 131.5q0 74 19.5 132.5t53.5 98.5t79 60.5t94 20.5t94 -20.5t79 -60.5
t53.5 -98.5t19.5 -132.5z" />
    <glyph glyph-name="uni2081" unicode="&#x2081;" horiz-adv-x="430" 
d="M205 410h92v-605h-123v451l-72 -41l-61 92z" />
    <glyph glyph-name="uni2082" unicode="&#x2082;" horiz-adv-x="532" 
d="M236 -82h235v-113h-410v93l226 235q23 23 42 47.5t19 55.5t-21.5 51t-60.5 20q-92 0 -92 -92h-113q0 92 56.5 148.5t148.5 56.5t148.5 -53.5t56.5 -130.5q0 -53 -22.5 -85t-38.5 -49z" />
    <glyph glyph-name="uni2083" unicode="&#x2083;" horiz-adv-x="552" 
d="M410 123q23 -12 41 -33q16 -16 28.5 -44t12.5 -66q0 -78 -57.5 -131.5t-158.5 -53.5q-100 0 -157.5 56.5t-57.5 148.5h113q0 -39 24.5 -65.5t77.5 -26.5q47 0 70 25.5t23 56.5t-22.5 56.5t-70.5 25.5h-61v102h51q39 0 60.5 19.5t21.5 42.5q0 31 -21.5 51t-60.5 20
q-82 0 -82 -82h-112q0 86 56 140.5t148 54.5q86 0 140.5 -52.5t54.5 -121.5q0 -35 -10 -58.5t-21 -37.5q-14 -17 -30 -27z" />
    <glyph glyph-name="uni2084" unicode="&#x2084;" horiz-adv-x="512" 
d="M389 31h72v-113h-72v-113h-123v113h-256v92l246 400h133v-379zM266 31v194l-123 -194h123z" />
    <glyph glyph-name="uni2085" unicode="&#x2085;" horiz-adv-x="563" 
d="M307 215q86 0 140.5 -56.5t54.5 -148.5t-61.5 -153.5t-153.5 -61.5t-150.5 53.5t-75.5 131.5h123q8 -31 32 -51.5t71 -20.5q39 0 65.5 27.5t26.5 74.5t-26.5 75t-65.5 28q-47 0 -70.5 -19.5t-32.5 -42.5h-102l41 359h338v-113h-236l-10 -102q8 4 23 10q10 4 28 7t41 3z
" />
    <glyph glyph-name="uni2086" unicode="&#x2086;" horiz-adv-x="542" 
d="M276 215q45 0 85 -16.5t69 -44t45.5 -64.5t16.5 -80q0 -92 -61.5 -153.5t-154.5 -61.5q-92 0 -153.5 61.5t-61.5 153.5q0 39 14.5 77t30.5 69q20 37 48 69l122 185h134zM276 113q-39 0 -65.5 -28t-26.5 -75t27 -74.5t65 -27.5q39 0 66 27.5t27 74.5t-27 75t-66 28z" />
    <glyph glyph-name="uni2087" unicode="&#x2087;" horiz-adv-x="481" 
d="M72 410h399v-72l-246 -533h-123l226 492h-256v113z" />
    <glyph glyph-name="uni2088" unicode="&#x2088;" horiz-adv-x="532" 
d="M266 -205q-92 0 -148.5 53.5t-56.5 131.5q0 39 12.5 66.5t28.5 43.5q18 20 41 33q-18 12 -30 31q-12 16 -21.5 38.5t-9.5 53.5q0 70 53 122t131 52t131.5 -52.5t53.5 -121.5q0 -31 -10.5 -53.5t-20.5 -38.5q-14 -18 -31 -31q23 -12 41 -33q16 -16 28.5 -44t12.5 -66
q0 -78 -56.5 -131.5t-148.5 -53.5zM266 307q-31 0 -51 -20.5t-20 -48.5q0 -25 20.5 -44.5t50.5 -19.5q31 0 51.5 19.5t20.5 44.5q0 29 -20.5 49t-51.5 20zM266 72q-39 0 -60.5 -26t-21.5 -56q0 -31 21.5 -56.5t60.5 -25.5t60.5 25.5t21.5 56.5t-21.5 56.5t-60.5 25.5z" />
    <glyph glyph-name="uni2089" unicode="&#x2089;" horiz-adv-x="542" 
d="M266 0q-47 0 -86 16.5t-67.5 44t-45 64.5t-16.5 80q0 92 61.5 153.5t153.5 61.5t153.5 -61.5t61.5 -153.5q0 -39 -15 -77t-32 -69q-20 -37 -45 -69l-123 -185h-133zM266 102q39 0 65.5 28t26.5 75t-26.5 74.5t-65.5 27.5t-65.5 -27.5t-26.5 -74.5t26.5 -75t65.5 -28z" />
    <glyph glyph-name="Euro" unicode="&#x20ac;" horiz-adv-x="1392" 
d="M201 635v21.5t2 21.5q0 10 2 18h-144v154h172q41 127 117 225q31 43 74 83t96 72t121 51t147 19q104 0 193.5 -35.5t159 -97t119 -143.5t71.5 -174h-205q-16 57 -45.5 107.5t-72.5 88t-98.5 59t-121.5 21.5q-49 0 -89 -12t-73.5 -31.5t-60 -44t-47.5 -51.5
q-49 -61 -80 -137h350v-154h-389q-2 -8 -4 -18t-2 -21.5v-21.5v-24.5t2 -22.5q2 -12 4 -25h389v-153h-348q29 -70 78 -123q41 -47 106.5 -85t163.5 -38q66 0 121.5 21.5t98.5 59.5t72.5 88t45.5 107h205q-23 -92 -72 -174t-118.5 -143.5t-158.5 -97t-194 -35.5
q-80 0 -147.5 18.5t-120.5 47t-96 66.5t-74 77q-74 92 -114 211h-175v153h144q-2 12 -2 25q-2 10 -2 22.5v24.5z" />
    <glyph glyph-name="uni20B4" unicode="&#x20b4;" horiz-adv-x="1105" 
d="M1034 860v-153h-962v153h563q29 12 51 33q18 16 34.5 40.5t16.5 59.5q0 47 -48 90t-126 43q-92 0 -143 -45t-51 -98h-195q0 61 27.5 118.5t78 101.5t120 70.5t153.5 26.5t153.5 -26.5t120 -69.5t78 -98t27.5 -113q0 -31 -8.5 -56.5t-18.5 -41.5q-10 -20 -24 -35h153z
M72 430v154h962v-154h-563q-29 -12 -51 -33q-20 -16 -35.5 -40.5t-15.5 -59.5q0 -47 48 -90t126 -43q92 0 143 45t51 98h195q0 -61 -27.5 -118.5t-78 -101.5t-120 -70.5t-153.5 -26.5t-153.5 26.5t-120 69.5t-78 98.5t-27.5 112.5q0 31 7 55.5t18 40.5q10 20 26 37h-153z
" />
    <glyph glyph-name="uni20BD" unicode="&#x20bd;" horiz-adv-x="1146" 
d="M666 686q45 0 85 17.5t68.5 47t45 68.5t16.5 82t-16.5 82t-45 68.5t-68.5 47t-85 17.5h-267v-430h267zM1075 901q0 -78 -30.5 -147.5t-86 -124t-130 -86t-162.5 -31.5h-267v-133h389v-174h-389v-205h-194v205h-154v174h154v133h-154v174h154v604h461q88 0 162.5 -31.5
t130 -86t86 -125t30.5 -146.5z" />
    <glyph glyph-name="uni2116" unicode="&#x2116;" horiz-adv-x="1955" 
d="M1331 174h533v-174h-533v174zM1137 1290v-1290h-164l-625 922v-922h-194v1290h163l625 -921v921h195zM1731 594q0 61 -40 102t-94 41q-53 0 -93 -41t-40 -102t40 -102t93 -41t93.5 41t40.5 102zM1884 594q0 -57 -23.5 -109.5t-62.5 -91.5t-91 -62.5t-110 -23.5
q-57 0 -109 23.5t-91 62.5t-62.5 91.5t-23.5 109.5t23.5 109.5t62.5 91.5t91 62.5t109 23.5t109.5 -23.5t91.5 -62.5t62.5 -91.5t23.5 -109.5z" />
    <glyph glyph-name="trademark" unicode="&#x2122;" horiz-adv-x="1105" 
d="M440 1188h-153v-420h-113v420h-154v102h420v-102zM737 932l-112 164v-328h-113v522h92l164 -235l164 235h92v-522h-113v328l-112 -164h-62z" />
    <glyph glyph-name="arrowleft" unicode="&#x2190;" horiz-adv-x="2048" 
d="M819 1239v-246l-266 -266h1280v-184h-1280l266 -267v-245l-604 604z" />
    <glyph glyph-name="arrowup" unicode="&#x2191;" horiz-adv-x="2048" 
d="M1628 860h-246l-266 266v-1280h-184v1280l-266 -266h-246l604 604z" />
    <glyph glyph-name="arrowright" unicode="&#x2192;" horiz-adv-x="2048" 
d="M1833 635l-604 -604v245l266 267h-1280v184h1280l-266 266v246z" />
    <glyph glyph-name="arrowdown" unicode="&#x2193;" horiz-adv-x="2048" 
d="M1024 -154l-604 605h246l266 -267v1280h184v-1280l266 267h246z" />
    <glyph glyph-name="arrowboth" unicode="&#x2194;" horiz-adv-x="2048" 
d="M1833 635l-604 -604v245l266 267h-942l266 -267v-245l-604 604l604 604v-246l-266 -266h942l-266 266v246z" />
    <glyph glyph-name="arrowupdn" unicode="&#x2195;" horiz-adv-x="2048" 
d="M1024 -154l-604 605h246l266 -267v942l-266 -266h-246l604 604l604 -604h-246l-266 266v-942l266 267h246z" />
    <glyph glyph-name="uni2196" unicode="&#x2196;" horiz-adv-x="2048" 
d="M1628 154l-123 -123l-911 911v-379l-174 -174v850h850l-174 -174h-379z" />
    <glyph glyph-name="uni2197" unicode="&#x2197;" horiz-adv-x="2048" 
d="M1331 1065h-379l-174 174h850v-850l-174 174v379l-911 -911l-123 123z" />
    <glyph glyph-name="uni2198" unicode="&#x2198;" horiz-adv-x="2048" 
d="M420 1116l123 123l911 -911v379l174 174v-850h-850l174 174h379z" />
    <glyph glyph-name="uni2199" unicode="&#x2199;" horiz-adv-x="2048" 
d="M717 205h379l174 -174h-850v850l174 -174v-379l911 911l123 -123z" />
    <glyph glyph-name="minus" unicode="&#x2212;" horiz-adv-x="911" 
d="M850 440h-789v164h789v-164z" />
    <glyph glyph-name="approxequal" unicode="&#x2248;" horiz-adv-x="921" 
d="M666 195q-49 0 -106.5 19t-114 42t-105.5 42t-84 19q-47 0 -74.5 -29.5t-27.5 -82.5h-154q0 139 69.5 213t186.5 74q49 0 106.5 -19.5t113.5 -42t105.5 -42t84.5 -19.5q47 0 74.5 29.5t27.5 82.5h154q0 -139 -69.5 -212.5t-186.5 -73.5zM666 594q-49 0 -106.5 19.5
t-114 42t-105.5 42t-84 19.5q-47 0 -74.5 -30t-27.5 -83h-154q0 139 69.5 213t186.5 74q49 0 106.5 -19.5t113.5 -42t105.5 -42t84.5 -19.5q47 0 74.5 29.5t27.5 83.5h154q0 -139 -69.5 -213t-186.5 -74z" />
    <glyph glyph-name="notequal" unicode="&#x2260;" horiz-adv-x="921" 
d="M584 614l-72 -184h369v-174h-441l-102 -246h-174l102 246h-225v174h297l72 184h-369v174h440l103 246h174l-103 -246h226v-174h-297z" />
    <glyph glyph-name="lessequal" unicode="&#x2264;" horiz-adv-x="931" 
d="M82 174h768v-174h-768v174zM850 1044v-184l-502 -205l502 -204v-185l-758 338v103z" />
    <glyph glyph-name="greaterequal" unicode="&#x2265;" horiz-adv-x="931" 
d="M850 0h-768v174h768v-174zM840 707v-103l-758 -338v185l502 204l-502 205v184z" />
    <glyph glyph-name="uni2460" unicode="&#x2460;" horiz-adv-x="2048" 
d="M164 655q0 176 68.5 333t185.5 273.5t273.5 185.5t332.5 69t332.5 -69t273.5 -185.5t185.5 -273.5t68.5 -333t-68.5 -332.5t-185.5 -273.5t-273.5 -185.5t-332.5 -68.5t-332.5 67.5t-273.5 184.5t-185.5 273.5t-68.5 334.5zM348 655q0 -139 53.5 -262t145.5 -215
t215 -145t262 -53q137 0 260 53t215 145t146.5 215t54.5 262t-54.5 262t-146.5 215.5t-215 145.5t-260 53q-139 0 -262 -54t-215 -146.5t-145.5 -215.5t-53.5 -260zM1157 1065v-819h-184v614l-113 -72l-82 123l226 154h153z" />
    <glyph glyph-name="uni2461" unicode="&#x2461;" horiz-adv-x="2048" 
d="M1311 410v-164h-563v123l296 307q39 39 60.5 67.5t21.5 75.5q0 39 -27.5 65.5t-74.5 26.5t-75.5 -26.5t-37.5 -65.5h-174q4 53 26.5 100.5t59.5 82t88.5 54t112.5 19.5q66 0 119 -19.5t90 -53t57.5 -78.5t20.5 -95q0 -47 -7.5 -79.5t-20.5 -59t-32.5 -49.5t-42.5 -47
l-174 -184h277zM164 655q0 176 68.5 333t185.5 273.5t273.5 185.5t332.5 69t332.5 -69t273.5 -185.5t185.5 -273.5t68.5 -333t-68.5 -332.5t-185.5 -273.5t-273.5 -185.5t-332.5 -68.5t-332.5 67.5t-273.5 184.5t-185.5 273.5t-68.5 334.5zM348 655q0 -139 53.5 -262
t145.5 -215t215 -145t262 -53q137 0 260 53t215 145t146.5 215t54.5 262t-54.5 262t-146.5 215.5t-215 145.5t-260 53q-139 0 -262 -54t-215 -146.5t-145.5 -215.5t-53.5 -260z" />
    <glyph glyph-name="uni2462" unicode="&#x2462;" horiz-adv-x="2048" 
d="M1188 676q39 -12 72 -35q27 -20 49 -56t22 -93q0 -109 -80 -182.5t-227 -73.5q-139 0 -215 69.5t-92 186.5h184q8 -39 39 -66t84 -27q61 0 92 28t31 75q0 39 -31 65.5t-92 26.5h-82v143h76q51 0 79.5 27t28.5 63q0 33 -27.5 58.5t-74.5 25.5q-53 0 -78.5 -21.5
t-34.5 -60.5h-174q4 47 26.5 92.5t59.5 79t88.5 54t112.5 20.5q68 0 121 -18.5t90 -49t56.5 -71.5t19.5 -86q0 -51 -19.5 -84t-42.5 -53q-26 -23 -61 -37zM164 655q0 176 68.5 333t185.5 273.5t273.5 185.5t332.5 69t332.5 -69t273.5 -185.5t185.5 -273.5t68.5 -333
t-68.5 -332.5t-185.5 -273.5t-273.5 -185.5t-332.5 -68.5t-332.5 67.5t-273.5 184.5t-185.5 273.5t-68.5 334.5zM348 655q0 -139 53.5 -262t145.5 -215t215 -145t262 -53q137 0 260 53t215 145t146.5 215t54.5 262t-54.5 262t-146.5 215.5t-215 145.5t-260 53
q-139 0 -262 -54t-215 -146.5t-145.5 -215.5t-53.5 -260z" />
    <glyph glyph-name="uni2463" unicode="&#x2463;" horiz-adv-x="2048" 
d="M1290 410h-82v-164h-184v164h-358v143l338 512h204v-492h82v-163zM1024 573v246l-164 -246h164zM164 655q0 176 68.5 333t185.5 273.5t273.5 185.5t332.5 69t332.5 -69t273.5 -185.5t185.5 -273.5t68.5 -333t-68.5 -332.5t-185.5 -273.5t-273.5 -185.5t-332.5 -68.5
t-332.5 67.5t-273.5 184.5t-185.5 273.5t-68.5 334.5zM348 655q0 -139 53.5 -262t145.5 -215t215 -145t262 -53q137 0 260 53t215 145t146.5 215t54.5 262t-54.5 262t-146.5 215.5t-215 145.5t-260 53q-139 0 -262 -54t-215 -146.5t-145.5 -215.5t-53.5 -260z" />
    <glyph glyph-name="uni2464" unicode="&#x2464;" horiz-adv-x="2048" 
d="M1044 788q61 0 113.5 -21.5t91.5 -59t60.5 -88t21.5 -107.5t-22.5 -107.5t-62.5 -88t-96 -59t-126 -21.5q-61 0 -112.5 19t-90.5 53t-62.5 79t-31.5 94h184q8 -31 37 -56.5t76 -25.5q53 0 88 35t35 88q0 47 -35 80t-88 33q-29 0 -48.5 -8.5t-31.5 -18.5q-14 -10 -22 -24
h-174l61 481h461v-164h-318l-20 -133q14 4 33 10q16 4 36 7t43 3zM164 655q0 176 68.5 333t185.5 273.5t273.5 185.5t332.5 69t332.5 -69t273.5 -185.5t185.5 -273.5t68.5 -333t-68.5 -332.5t-185.5 -273.5t-273.5 -185.5t-332.5 -68.5t-332.5 67.5t-273.5 184.5
t-185.5 273.5t-68.5 334.5zM348 655q0 -139 53.5 -262t145.5 -215t215 -145t262 -53q137 0 260 53t215 145t146.5 215t54.5 262t-54.5 262t-146.5 215.5t-215 145.5t-260 53q-139 0 -262 -54t-215 -146.5t-145.5 -215.5t-53.5 -260z" />
    <glyph glyph-name="uni2465" unicode="&#x2465;" horiz-adv-x="2048" 
d="M1024 236q-66 0 -122 23.5t-97 62t-64.5 91t-23.5 109.5q0 41 9 77t22 63q12 31 30 55l236 348h184l-184 -256h10q66 0 122 -23.5t97 -62.5t64.5 -91t23.5 -110q0 -57 -23.5 -109.5t-64.5 -91t-97 -62t-122 -23.5zM901 522q0 -53 35 -88t88 -35t88 35t35 88t-35 88
t-88 35t-88 -35t-35 -88zM164 655q0 176 68.5 333t185.5 273.5t273.5 185.5t332.5 69t332.5 -69t273.5 -185.5t185.5 -273.5t68.5 -333t-68.5 -332.5t-185.5 -273.5t-273.5 -185.5t-332.5 -68.5t-332.5 67.5t-273.5 184.5t-185.5 273.5t-68.5 334.5zM348 655
q0 -139 53.5 -262t145.5 -215t215 -145t262 -53q137 0 260 53t215 145t146.5 215t54.5 262t-54.5 262t-146.5 215.5t-215 145.5t-260 53q-139 0 -262 -54t-215 -146.5t-145.5 -215.5t-53.5 -260z" />
    <glyph glyph-name="uni2466" unicode="&#x2466;" horiz-adv-x="2048" 
d="M1311 1065v-133l-328 -686h-184l317 655h-348v164h543zM164 655q0 176 68.5 333t185.5 273.5t273.5 185.5t332.5 69t332.5 -69t273.5 -185.5t185.5 -273.5t68.5 -333t-68.5 -332.5t-185.5 -273.5t-273.5 -185.5t-332.5 -68.5t-332.5 67.5t-273.5 184.5t-185.5 273.5
t-68.5 334.5zM348 655q0 -139 53.5 -262t145.5 -215t215 -145t262 -53q137 0 260 53t215 145t146.5 215t54.5 262t-54.5 262t-146.5 215.5t-215 145.5t-260 53q-139 0 -262 -54t-215 -146.5t-145.5 -215.5t-53.5 -260z" />
    <glyph glyph-name="uni2467" unicode="&#x2467;" horiz-adv-x="2048" 
d="M1024 389q53 0 88 27.5t35 75.5q0 47 -35 74.5t-88 27.5t-88 -27.5t-35 -74.5t35 -75t88 -28zM1024 758q39 0 65.5 21.5t26.5 60.5t-26.5 60.5t-65.5 21.5t-65.5 -21.5t-26.5 -60.5t26.5 -60.5t65.5 -21.5zM164 655q0 176 68.5 333t185.5 273.5t273.5 185.5t332.5 69
t332.5 -69t273.5 -185.5t185.5 -273.5t68.5 -333t-68.5 -332.5t-185.5 -273.5t-273.5 -185.5t-332.5 -68.5t-332.5 67.5t-273.5 184.5t-185.5 273.5t-68.5 334.5zM348 655q0 -139 53.5 -262t145.5 -215t215 -145t262 -53q137 0 260 53t215 145t146.5 215t54.5 262t-54.5 262
t-146.5 215.5t-215 145.5t-260 53q-139 0 -262 -54t-215 -146.5t-145.5 -215.5t-53.5 -260zM1024 236q-74 0 -130 19t-96 53t-60.5 79t-20.5 94q0 53 21.5 91t49.5 61q31 27 72 43q-33 16 -57 41q-23 23 -39 54.5t-16 78.5q0 92 72.5 158.5t203.5 66.5t203.5 -66.5
t72.5 -158.5q0 -47 -17 -79t-40 -54q-25 -25 -55 -41q39 -16 72 -43q27 -23 49 -60.5t22 -91.5q0 -49 -20.5 -94t-60.5 -79t-96 -53t-130 -19z" />
    <glyph glyph-name="uni2468" unicode="&#x2468;" horiz-adv-x="2048" 
d="M1024 1075q66 0 122 -23.5t97 -62.5t64.5 -91t23.5 -110q0 -43 -10 -77.5t-21 -61.5q-14 -31 -30 -55l-236 -348h-184l184 256h-10q-66 0 -122 23.5t-97 62.5t-64.5 91t-23.5 109t23.5 109.5t64.5 91.5t97 62.5t122 23.5zM1147 788q0 53 -35 88t-88 35t-88 -34.5
t-35 -88.5q0 -53 35 -87.5t88 -34.5t88 34.5t35 87.5zM1884 655q0 -176 -68.5 -332.5t-185.5 -273.5t-273.5 -185.5t-332.5 -68.5t-332.5 68.5t-273.5 185.5t-185.5 273.5t-68.5 332.5t68.5 333t185.5 273.5t273.5 185.5t332.5 69t332.5 -68t273.5 -184.5t185.5 -273.5
t68.5 -335zM1700 655q0 137 -54.5 260t-146.5 215.5t-215 146.5t-260 54q-139 0 -262 -54t-215 -146.5t-145.5 -215t-53.5 -260.5q0 -139 53.5 -262t145.5 -215t215 -145t262 -53q137 0 260 53t215 145t146.5 215t54.5 262z" />
    <glyph glyph-name="uni24EA" unicode="&#x24ea;" horiz-adv-x="2048" 
d="M860 655q0 -139 47 -197.5t117 -58.5t117 58.5t47 197.5t-47 197.5t-117 58.5t-117 -58.5t-47 -197.5zM1372 655q0 -100 -26.5 -178t-73.5 -132t-110.5 -81.5t-137.5 -27.5t-137.5 27.5t-110.5 81.5t-73.5 132t-26.5 178t26.5 178t73.5 131.5t110.5 82t137.5 28.5
t137.5 -28.5t110.5 -82t73.5 -131.5t26.5 -178zM164 655q0 176 68.5 333t185.5 273.5t273.5 185.5t332.5 69t332.5 -69t273.5 -185.5t185.5 -273.5t68.5 -333t-68.5 -332.5t-185.5 -273.5t-273.5 -185.5t-332.5 -68.5t-332.5 67.5t-273.5 184.5t-185.5 273.5t-68.5 334.5z
M348 655q0 -139 53.5 -262t145.5 -215t215 -145t262 -53q137 0 260 53t215 145t146.5 215t54.5 262t-54.5 262t-146.5 215.5t-215 145.5t-260 53q-139 0 -262 -54t-215 -146.5t-145.5 -215.5t-53.5 -260z" />
    <glyph glyph-name="uni24FF" unicode="&#x24ff;" horiz-adv-x="2048" 
d="M860 655q0 139 47 197.5t117 58.5t117 -58t47 -198q0 -139 -47 -197.5t-117 -58.5t-117 58.5t-47 197.5zM1372 655q0 100 -26.5 178t-73.5 131.5t-110.5 82t-137.5 28.5t-137.5 -28.5t-110.5 -82t-73.5 -131t-26.5 -178.5q0 -100 26.5 -178t73.5 -132t110.5 -81.5
t137.5 -27.5t137.5 27.5t110.5 81.5t73.5 132t26.5 178zM164 655q0 176 68.5 333t185.5 273.5t273.5 185.5t332.5 69t332.5 -69t273.5 -185.5t185.5 -273.5t68.5 -333t-68.5 -332.5t-185.5 -273.5t-273.5 -185.5t-332.5 -68.5t-332.5 67.5t-273.5 184.5t-185.5 273.5
t-68.5 334.5z" />
    <glyph glyph-name="uni2776" unicode="&#x2776;" horiz-adv-x="2048" 
d="M164 655q0 176 68.5 333t185.5 273.5t273.5 185.5t332.5 69t332.5 -69t273.5 -185.5t185.5 -273.5t68.5 -333t-68.5 -332.5t-185.5 -273.5t-273.5 -185.5t-332.5 -68.5t-332.5 67.5t-273.5 184.5t-185.5 273.5t-68.5 334.5zM1004 1065l-226 -154l82 -123l113 72v-614h184
v819h-153z" />
    <glyph glyph-name="uni2777" unicode="&#x2777;" horiz-adv-x="2048" 
d="M164 655q0 176 68.5 333t185.5 273.5t273.5 185.5t332.5 69t332.5 -69t273.5 -185.5t185.5 -273.5t68.5 -333t-68.5 -332.5t-185.5 -273.5t-273.5 -185.5t-332.5 -68.5t-332.5 67.5t-273.5 184.5t-185.5 273.5t-68.5 334.5zM1034 410l174 184q23 25 42.5 47.5t32.5 49
t20.5 59t7.5 79.5q0 49 -20.5 94.5t-57.5 79t-90 53t-119 19.5q-61 0 -112.5 -19.5t-88.5 -54t-59.5 -82t-26.5 -100.5h174q8 39 37 65.5t76 26.5t74.5 -26.5t27.5 -65.5q0 -47 -21.5 -75.5t-60.5 -67.5l-296 -307v-123h563v164h-277z" />
    <glyph glyph-name="uni2778" unicode="&#x2778;" horiz-adv-x="2048" 
d="M164 655q0 176 68.5 333t185.5 273.5t273.5 185.5t332.5 69t332.5 -69t273.5 -185.5t185.5 -273.5t68.5 -333t-68.5 -332.5t-185.5 -273.5t-273.5 -185.5t-332.5 -68.5t-332.5 67.5t-273.5 184.5t-185.5 273.5t-68.5 334.5zM1188 676q35 14 61 37q23 20 42.5 53t19.5 84
q0 45 -19.5 86t-56.5 71.5t-90 49t-121 18.5q-61 0 -112.5 -20.5t-88.5 -54t-59.5 -78.5t-26.5 -93h174q8 39 34 60.5t79 21.5q47 0 74.5 -25.5t27.5 -58.5q0 -37 -28.5 -63.5t-79.5 -26.5h-76v-143h82q61 0 92 -26.5t31 -65.5q0 -47 -31 -75t-92 -28q-53 0 -84 27t-39 66
h-184q16 -117 92 -186.5t215 -69.5q147 0 227 73.5t80 182.5q0 57 -22.5 93t-48.5 56q-33 23 -72 35z" />
    <glyph glyph-name="uni2779" unicode="&#x2779;" horiz-adv-x="2048" 
d="M1290 573h-82v492h-204l-338 -512v-143h358v-164h184v164h82v163zM860 573l164 246v-246h-164zM164 655q0 176 68.5 333t185.5 273.5t273.5 185.5t332.5 69t332.5 -69t273.5 -185.5t185.5 -273.5t68.5 -333t-68.5 -332.5t-185.5 -273.5t-273.5 -185.5t-332.5 -68.5
t-332.5 67.5t-273.5 184.5t-185.5 273.5t-68.5 334.5z" />
    <glyph glyph-name="uni277A" unicode="&#x277a;" horiz-adv-x="2048" 
d="M164 655q0 176 68.5 333t185.5 273.5t273.5 185.5t332.5 69t332.5 -69t273.5 -185.5t185.5 -273.5t68.5 -333t-68.5 -332.5t-185.5 -273.5t-273.5 -185.5t-332.5 -68.5t-332.5 67.5t-273.5 184.5t-185.5 273.5t-68.5 334.5zM1044 788q-23 0 -43 -3t-36 -7q-18 -6 -33 -10
l20 133h318v164h-461l-61 -481h174q8 14 22 24q12 10 31.5 18.5t48.5 8.5q53 0 88 -33t35 -80q0 -53 -35 -88t-88 -35q-47 0 -75.5 26t-37.5 56h-184q8 -49 31.5 -94t62.5 -79t90.5 -53t112.5 -19q70 0 126 21.5t96 59t62.5 88t22.5 107.5t-21.5 107.5t-60.5 88t-91.5 59
t-113.5 21.5z" />
    <glyph glyph-name="uni277B" unicode="&#x277b;" horiz-adv-x="2048" 
d="M1024 236q66 0 122 23.5t97 62t64.5 91t23.5 109.5t-23.5 109.5t-64.5 91.5t-97 62.5t-122 23.5h-10l184 256h-184l-236 -348q-18 -25 -30 -55q-12 -27 -21.5 -63t-9.5 -77q0 -57 23.5 -109.5t64.5 -91t97 -62t122 -23.5zM901 522q0 53 35 88t88 35t88 -35t35 -88
t-35 -88t-88 -35t-88 35t-35 88zM164 655q0 176 68.5 333t185.5 273.5t273.5 185.5t332.5 69t332.5 -69t273.5 -185.5t185.5 -273.5t68.5 -333t-68.5 -332.5t-185.5 -273.5t-273.5 -185.5t-332.5 -68.5t-332.5 67.5t-273.5 184.5t-185.5 273.5t-68.5 334.5z" />
    <glyph glyph-name="uni277C" unicode="&#x277c;" horiz-adv-x="2048" 
d="M768 1065v-164h348l-317 -655h184l328 686v133h-543zM164 655q0 176 68.5 333t185.5 273.5t273.5 185.5t332.5 69t332.5 -69t273.5 -185.5t185.5 -273.5t68.5 -333t-68.5 -332.5t-185.5 -273.5t-273.5 -185.5t-332.5 -68.5t-332.5 67.5t-273.5 184.5t-185.5 273.5
t-68.5 334.5z" />
    <glyph glyph-name="uni277D" unicode="&#x277d;" horiz-adv-x="2048" 
d="M1024 389q-53 0 -88 27.5t-35 75.5q0 47 35 74.5t88 27.5t88 -27.5t35 -74.5t-35 -75t-88 -28zM1024 758q-39 0 -65.5 21.5t-26.5 60.5t26.5 60.5t65.5 21.5t65.5 -21.5t26.5 -60.5t-26.5 -60.5t-65.5 -21.5zM164 655q0 176 68.5 333t185.5 273.5t273.5 185.5t332.5 69
t332.5 -69t273.5 -185.5t185.5 -273.5t68.5 -333t-68.5 -332.5t-185.5 -273.5t-273.5 -185.5t-332.5 -68.5t-332.5 67.5t-273.5 184.5t-185.5 273.5t-68.5 334.5zM1024 236q74 0 130 19t96 53t60.5 79t20.5 94q0 53 -22.5 91t-48.5 61q-33 27 -72 43q31 16 55 41
q23 23 40 54.5t17 78.5q0 92 -72.5 158.5t-203.5 66.5t-203.5 -66.5t-72.5 -158.5q0 -47 16 -79t39 -54q25 -25 57 -41q-41 -16 -72 -43q-29 -23 -50 -60.5t-21 -91.5q0 -49 20.5 -94t60.5 -79t96 -53t130 -19z" />
    <glyph glyph-name="uni277E" unicode="&#x277e;" horiz-adv-x="2048" 
d="M1024 1075q-66 0 -122 -23.5t-97 -62.5t-64.5 -91t-23.5 -110q0 -57 23.5 -109t64.5 -91t97 -62.5t122 -23.5h10l-184 -256h184l236 348q16 25 30 55q10 27 20.5 61.5t10.5 77.5q0 57 -23.5 109.5t-64.5 91.5t-97 62.5t-122 23.5zM1147 788q0 -53 -35 -87.5t-88 -34.5
t-88 34.5t-35 87.5t35 88t88 35t88 -35t35 -88zM1884 655q0 -176 -68.5 -332.5t-185.5 -273.5t-273.5 -185.5t-332.5 -68.5t-332.5 68.5t-273.5 185.5t-185.5 273.5t-68.5 332.5t68.5 333t185.5 273.5t273.5 185.5t332.5 69t332.5 -68t273.5 -184.5t185.5 -273.5t68.5 -335z
" />
    <glyph glyph-name="uniF6C3" unicode="&#xf6c3;" horiz-adv-x="348" 
d="M174 -133q47 0 80 -35t33 -88q0 -74 -25.5 -125t-56.5 -86q-37 -39 -82 -65l-31 40q20 14 39 35q16 16 30.5 42t22.5 57q-53 0 -88 32.5t-35 79.5t33 80t80 33z" />
    <glyph glyph-name="uniF6D1" unicode="&#xf6d1;" horiz-adv-x="655" 
d="M328 1423q-109 0 -179.5 68t-87.5 168h144q8 -47 42 -80t81 -33t80.5 33t42.5 80h143q-16 -100 -86.5 -168t-179.5 -68z" />
    <glyph glyph-name="uniF6D4" unicode="&#xf6d4;" horiz-adv-x="655" 
d="M328 1055q-109 0 -179.5 67.5t-87.5 167.5h144q8 -47 42 -79.5t81 -32.5t80.5 32.5t42.5 79.5h143q-16 -100 -86.5 -167.5t-179.5 -67.5z" />
    <glyph glyph-name="uniFB06" unicode="&#xfb06;" horiz-adv-x="1484" 
d="M430 932q-4 6 -6 16t-3 22.5t-1 33.5q0 80 28.5 149.5t80 120.5t121 79.5t149.5 28.5q88 0 159.5 -26.5t123 -73.5t79 -110.5t27.5 -137.5v-112h205v-174h-205v-441q0 -61 41 -102t102 -41q10 0 21.5 1t21.5 3t19 6v-164q-12 -6 -29 -10q-31 -10 -74 -10
q-61 0 -113.5 22.5t-91 63.5t-60 99t-21.5 132v441h-166v174h73q53 0 88 32.5t35 79.5q0 35 -16.5 68t-45 59.5t-68.5 42t-85 15.5q-100 0 -162.5 -62.5t-62.5 -163.5q0 -57 21.5 -89t48 -62.5t51 -73.5t33.5 -123h-185q-8 47 -46 80t-107 33q-70 0 -107 -32t-37 -71
q0 -41 37 -62.5t91.5 -35.5t117.5 -29.5t117.5 -44t91.5 -77t37 -130.5q0 -123 -88 -204.5t-250 -81.5q-170 0 -255 80t-93 227h184q8 -61 47 -97t117 -36t121 29.5t43 82.5q0 41 -37 62.5t-91.5 36t-118 30t-117.5 44t-91 76.5t-37 130q0 57 22.5 107.5t65.5 88.5
t106.5 59.5t143.5 21.5z" />
    <glyph glyph-name="lslash.salt" horiz-adv-x="614" 
d="M369 809l163 102v-174l-163 -102v-328q0 -61 41 -102t102 -41q10 0 21.5 1t21.5 3t18 6v-164q-12 -6 -28 -10q-31 -10 -74 -10q-61 0 -113.5 22.5t-91.5 63.5t-60.5 99t-21.5 132v205l-143 -92v174l143 92v604h185v-481z" />
    <glyph glyph-name="glyph474" horiz-adv-x="1239" 
d="M850 758q86 -18 154 -66q57 -41 105 -112.5t48 -190.5q0 -80 -30.5 -151.5t-85 -124t-127 -83t-156.5 -30.5h-113v184h113q86 0 145.5 59.5t59.5 145.5q0 43 -16.5 80t-44.5 64.5t-63.5 44t-76.5 16.5h-117v164l225 338h-327q-86 0 -140.5 -53.5t-54.5 -131.5v-911h-194
v911q0 76 30.5 145.5t82.5 121t124 82t152 30.5h542v-174z" />
    <glyph glyph-name="a.salt" horiz-adv-x="1075" 
d="M819 0l-41 92q-27 -29 -63 -51q-33 -20 -83 -35.5t-120 -15.5q-92 0 -172 34.5t-140.5 97t-94 148.5t-33.5 191q0 104 33.5 190t94 148.5t140.5 97.5t172 35q70 0 120 -16.5t83 -34.5q37 -23 63 -52l41 93h133v-922h-133zM256 461q0 -66 21.5 -120t58.5 -94t85 -61.5
t101 -21.5t101.5 21.5t85 61.5t58 94t21.5 120t-21.5 120t-58 94t-85 61.5t-101.5 21.5t-101 -21.5t-85 -61.5t-58.5 -94t-21.5 -120z" />
    <glyph glyph-name="uni0443.salt" horiz-adv-x="942" 
d="M379 31l-359 891h195l256 -666l256 666h195l-502 -1250h-184z" />
    <glyph glyph-name="l.salt" horiz-adv-x="542" 
d="M317 307q0 -61 41 -102t103 -41q10 0 21.5 1t21.5 3t18 6v-164q-12 -6 -28 -10q-31 -10 -74 -10q-61 0 -113.5 22.5t-91.5 63.5t-60.5 99t-21.5 132v983h184v-983z" />
    <glyph glyph-name="y.salt" horiz-adv-x="1054" 
d="M748 143q-31 -35 -68 -61q-33 -23 -80 -42.5t-108 -19.5q-78 0 -144.5 30t-117 82t-79 126t-28.5 162v502h184v-502q0 -47 17.5 -88t47 -72t68.5 -48t82 -17q45 0 86 17t72 48t49.5 72t18.5 88v502h184v-881q0 -84 -30 -155.5t-83 -124t-129 -81t-168 -28.5
q-80 0 -145.5 23.5t-114.5 63.5t-82 94t-47 116h184q23 -47 72 -85t133 -38q100 0 163 61.5t63 153.5v102z" />
    <glyph glyph-name="I.salt" horiz-adv-x="727" 
d="M266 1106h-205v184h605v-184h-205v-922h205v-184h-605v184h205v922z" />
    <glyph glyph-name="c_t.dlig" horiz-adv-x="1638" 
d="M1341 922h205v-174h-205v-441q0 -61 41 -102t103 -41q10 0 21.5 1t21.5 3t18 6v-164q-12 -6 -28 -10q-31 -10 -74 -10q-61 0 -113.5 22.5t-91.5 63.5t-60.5 99t-21.5 132v441h-166v174h74q53 0 88 32.5t35 79.5q0 35 -16.5 68t-45 59.5t-68.5 42t-85 15.5
q-100 0 -162.5 -62.5t-62.5 -163.5q0 -61 21.5 -105t50 -87t57 -93.5t45.5 -123.5h-195q-23 78 -76 126t-139 48q-49 0 -96 -21.5t-82 -61.5t-56.5 -94.5t-21.5 -119.5q0 -66 21.5 -120t56.5 -94t82 -61.5t96 -21.5q86 0 139.5 48t75.5 126h195q-16 -74 -51 -137.5
t-88.5 -110.5t-122 -73.5t-148.5 -26.5q-92 0 -172 34.5t-140.5 97t-94 148.5t-33.5 191q0 104 33.5 190t94 148.5t140.5 97.5t172 35q16 0 28.5 -2t22.5 -4t21 -4q-4 10 -6 22q-2 10 -3.5 24.5t-1.5 35.5q0 80 29 149.5t80 120.5t120.5 79.5t149.5 28.5q88 0 160 -26.5
t123 -73.5t78.5 -110.5t27.5 -137.5v-112z" />
    <glyph glyph-name="r_f.dlig" horiz-adv-x="1085" 
d="M1044 748h-204v-748h-185v748h-123q-47 0 -88 -18.5t-71.5 -49.5t-48 -72t-17.5 -86v-522h-184v922h133l41 -93q20 25 55 45q29 16 74 32t106 16h123v61q0 74 21.5 132.5t60.5 99t91.5 63t113.5 22.5q23 0 41 -3t33 -7q16 -6 28 -10v-164q-8 2 -18 4t-21.5 4t-21.5 2
q-61 0 -102 -41t-41 -102v-61h204v-174z" />
    <glyph glyph-name="r_t.dlig" horiz-adv-x="1136" 
d="M840 307q0 -61 41 -102t102 -41q10 0 21.5 1t21.5 3t18 6v-164q-12 -6 -28 -10q-31 -10 -74 -10q-61 0 -113.5 22.5t-91.5 63.5t-60.5 99t-21.5 132v441h-123q-47 0 -88 -18.5t-71.5 -49.5t-48 -72t-17.5 -86v-522h-184v922h133l41 -93q20 25 55 45q29 16 74 32t106 16
h31q53 0 88 34.5t35 87.5v123h154v-245h204v-174h-204v-441z" />
    <glyph glyph-name="uni0430.salt" horiz-adv-x="1075" 
d="M819 0l-41 92q-27 -29 -63 -51q-33 -20 -83 -35.5t-120 -15.5q-92 0 -172 34.5t-140.5 97t-94 148.5t-33.5 191q0 104 33.5 190t94 148.5t140.5 97.5t172 35q70 0 120 -16.5t83 -34.5q37 -23 63 -52l41 93h133v-922h-133zM256 461q0 -66 21.5 -120t58.5 -94t85 -61.5
t101 -21.5t101.5 21.5t85 61.5t58 94t21.5 120t-21.5 120t-58 94t-85 61.5t-101.5 21.5t-101 -21.5t-85 -61.5t-58.5 -94t-21.5 -120z" />
    <glyph glyph-name="uni045E.salt" horiz-adv-x="942" 
d="M379 31l-359 891h195l256 -666l256 666h195l-502 -1250h-184zM471 1188q47 0 81 31.5t42 70.5h143q-16 -100 -86.5 -167.5t-179.5 -67.5t-179.5 67.5t-86.5 167.5h143q8 -39 42 -70.5t81 -31.5z" />
    <glyph glyph-name="agrave.salt" horiz-adv-x="1075" 
d="M819 0l-41 92q-27 -29 -63 -51q-33 -20 -83 -35.5t-120 -15.5q-92 0 -172 34.5t-140.5 97t-94 148.5t-33.5 191q0 104 33.5 190t94 148.5t140.5 97.5t172 35q70 0 120 -16.5t83 -34.5q37 -23 63 -52l41 93h133v-922h-133zM256 461q0 -66 21.5 -120t58.5 -94t85 -61.5
t101 -21.5t101.5 21.5t85 61.5t58 94t21.5 120t-21.5 120t-58 94t-85 61.5t-101.5 21.5t-101 -21.5t-85 -61.5t-58.5 -94t-21.5 -120zM614 1075h-122l-175 246h175z" />
    <glyph glyph-name="aacute.salt" horiz-adv-x="1075" 
d="M819 0l-41 92q-27 -29 -63 -51q-33 -20 -83 -35.5t-120 -15.5q-92 0 -172 34.5t-140.5 97t-94 148.5t-33.5 191q0 104 33.5 190t94 148.5t140.5 97.5t172 35q70 0 120 -16.5t83 -34.5q37 -23 63 -52l41 93h133v-922h-133zM256 461q0 -66 21.5 -120t58.5 -94t85 -61.5
t101 -21.5t101.5 21.5t85 61.5t58 94t21.5 120t-21.5 120t-58 94t-85 61.5t-101.5 21.5t-101 -21.5t-85 -61.5t-58.5 -94t-21.5 -120zM594 1321h174l-174 -246h-123z" />
    <glyph glyph-name="abreve.salt" horiz-adv-x="1075" 
d="M819 0l-41 92q-27 -29 -63 -51q-33 -20 -83 -35.5t-120 -15.5q-92 0 -172 34.5t-140.5 97t-94 148.5t-33.5 191q0 104 33.5 190t94 148.5t140.5 97.5t172 35q70 0 120 -16.5t83 -34.5q37 -23 63 -52l41 93h133v-922h-133zM256 461q0 -66 21.5 -120t58.5 -94t85 -61.5
t101 -21.5t101.5 21.5t85 61.5t58 94t21.5 120t-21.5 120t-58 94t-85 61.5t-101.5 21.5t-101 -21.5t-85 -61.5t-58.5 -94t-21.5 -120zM543 1188q47 0 80.5 31.5t42.5 70.5h143q-16 -100 -87 -167.5t-179 -67.5q-109 0 -179.5 67.5t-87.5 167.5h144q8 -39 42 -70.5t81 -31.5z
" />
    <glyph glyph-name="acircumflex.salt" horiz-adv-x="1075" 
d="M819 0l-41 92q-27 -29 -63 -51q-33 -20 -83 -35.5t-120 -15.5q-92 0 -172 34.5t-140.5 97t-94 148.5t-33.5 191q0 104 33.5 190t94 148.5t140.5 97.5t172 35q70 0 120 -16.5t83 -34.5q37 -23 63 -52l41 93h133v-922h-133zM256 461q0 -66 21.5 -120t58.5 -94t85 -61.5
t101 -21.5t101.5 21.5t85 61.5t58 94t21.5 120t-21.5 120t-58 94t-85 61.5t-101.5 21.5t-101 -21.5t-85 -61.5t-58.5 -94t-21.5 -120zM809 1065h-164l-102 143l-103 -143h-164l185 246h164z" />
    <glyph glyph-name="adieresis.salt" horiz-adv-x="1075" 
d="M819 0l-41 92q-27 -29 -63 -51q-33 -20 -83 -35.5t-120 -15.5q-92 0 -172 34.5t-140.5 97t-94 148.5t-33.5 191q0 104 33.5 190t94 148.5t140.5 97.5t172 35q70 0 120 -16.5t83 -34.5q37 -23 63 -52l41 93h133v-922h-133zM256 461q0 -66 21.5 -120t58.5 -94t85 -61.5
t101 -21.5t101.5 21.5t85 61.5t58 94t21.5 120t-21.5 120t-58 94t-85 61.5t-101.5 21.5t-101 -21.5t-85 -61.5t-58.5 -94t-21.5 -120zM481 1178q0 -47 -32.5 -80t-79.5 -33t-80 32.5t-33 80.5q0 47 33 79.5t80 32.5t79.5 -32.5t32.5 -79.5zM829 1178q0 -47 -32.5 -80
t-79.5 -33t-80 32.5t-33 80.5q0 47 33 79.5t80 32.5t79.5 -32.5t32.5 -79.5z" />
    <glyph glyph-name="amacron.salt" horiz-adv-x="1075" 
d="M819 0l-41 92q-27 -29 -63 -51q-33 -20 -83 -35.5t-120 -15.5q-92 0 -172 34.5t-140.5 97t-94 148.5t-33.5 191q0 104 33.5 190t94 148.5t140.5 97.5t172 35q70 0 120 -16.5t83 -34.5q37 -23 63 -52l41 93h133v-922h-133zM256 461q0 -66 21.5 -120t58.5 -94t85 -61.5
t101 -21.5t101.5 21.5t85 61.5t58 94t21.5 120t-21.5 120t-58 94t-85 61.5t-101.5 21.5t-101 -21.5t-85 -61.5t-58.5 -94t-21.5 -120zM799 1106h-512v133h512v-133z" />
    <glyph glyph-name="aogonek.salt" horiz-adv-x="1075" 
d="M778 92q-27 -29 -63 -51q-33 -20 -83 -35.5t-120 -15.5q-92 0 -172 34.5t-140.5 97t-94 148.5t-33.5 191q0 104 33.5 190t94 148.5t140.5 97.5t172 35q70 0 120 -16.5t83 -34.5q37 -23 63 -52l41 93h133v-922h-10q-20 -25 -37 -51q-14 -23 -24.5 -52.5t-10.5 -60.5
q0 -39 27 -65.5t66 -26.5q16 0 29.5 1t25.5 3t26 6v-102q-16 -4 -32 -6q-14 -2 -32.5 -3t-37.5 -1q-92 0 -143 48t-51 126q0 39 10 72.5t24 58.5q16 29 37 53zM256 461q0 -66 21.5 -120t58.5 -94t85 -61.5t101 -21.5t101.5 21.5t85 61.5t58 94t21.5 120t-21.5 120t-58 94
t-85 61.5t-101.5 21.5t-101 -21.5t-85 -61.5t-58.5 -94t-21.5 -120z" />
    <glyph glyph-name="aring.salt" horiz-adv-x="1075" 
d="M819 0l-41 92q-27 -29 -63 -51q-33 -20 -83 -35.5t-120 -15.5q-92 0 -172 34.5t-140.5 97t-94 148.5t-33.5 191q0 104 33.5 190t94 148.5t140.5 97.5t172 35q70 0 120 -16.5t83 -34.5q37 -23 63 -52l41 93h133v-922h-133zM256 461q0 -66 21.5 -120t58.5 -94t85 -61.5
t101 -21.5t101.5 21.5t85 61.5t58 94t21.5 120t-21.5 120t-58 94t-85 61.5t-101.5 21.5t-101 -21.5t-85 -61.5t-58.5 -94t-21.5 -120zM604 1208q0 31 -20.5 56.5t-51.5 25.5t-51 -25.5t-20 -56.5t20.5 -56.5t50.5 -25.5q31 0 51.5 25.5t20.5 56.5zM707 1208
q0 -70 -48.5 -122t-126.5 -52t-126 52.5t-48 121.5q0 70 48.5 122t125.5 52q78 0 126.5 -52t48.5 -122z" />
    <glyph glyph-name="atilde.salt" horiz-adv-x="1075" 
d="M819 0l-41 92q-27 -29 -63 -51q-33 -20 -83 -35.5t-120 -15.5q-92 0 -172 34.5t-140.5 97t-94 148.5t-33.5 191q0 104 33.5 190t94 148.5t140.5 97.5t172 35q70 0 120 -16.5t83 -34.5q37 -23 63 -52l41 93h133v-922h-133zM256 461q0 -66 21.5 -120t58.5 -94t85 -61.5
t101 -21.5t101.5 21.5t85 61.5t58 94t21.5 120t-21.5 120t-58 94t-85 61.5t-101.5 21.5t-101 -21.5t-85 -61.5t-58.5 -94t-21.5 -120zM666 1044q-47 0 -78 19.5t-54.5 42t-45 42t-48.5 19.5q-31 0 -56.5 -29.5t-25.5 -82.5h-102q0 123 54.5 184t131.5 61q45 0 76 -19
t55.5 -41.5t45 -42t49.5 -19.5q31 0 56.5 29.5t25.5 82.5h102q0 -123 -54 -184.5t-132 -61.5z" />
    <glyph glyph-name="lacute.salt" horiz-adv-x="542" 
d="M317 307q0 -61 41 -102t103 -41q10 0 21.5 1t21.5 3t18 6v-164q-12 -6 -28 -10q-31 -10 -74 -10q-61 0 -113.5 22.5t-91.5 63.5t-60.5 99t-21.5 132v983h184v-983zM287 1690h174l-174 -246h-123z" />
    <glyph glyph-name="lcaron.salt" horiz-adv-x="563" 
d="M317 307q0 -61 41 -102t103 -41q10 0 21.5 1t21.5 3t18 6v-164q-12 -6 -28 -10q-31 -10 -74 -10q-61 0 -113.5 22.5t-91.5 63.5t-60.5 99t-21.5 132v983h184v-983zM502 1290h164l-123 -246h-113z" />
    <glyph glyph-name="uni013C.salt" horiz-adv-x="542" 
d="M317 307q0 -61 41 -102t103 -41q10 0 21.5 1t21.5 3t18 6v-164q-12 -6 -28 -10q-31 -10 -74 -10q-61 0 -113.5 22.5t-91.5 63.5t-60.5 99t-21.5 132v983h184v-983zM328 -133q47 0 79.5 -35t32.5 -88q0 -74 -25.5 -125t-56.5 -86q-37 -39 -82 -65l-30 40q20 14 39 35
q16 16 30.5 42t22.5 57q-53 0 -88 32.5t-35 79.5t33 80t80 33z" />
    <glyph glyph-name="Igrave.salt" horiz-adv-x="727" 
d="M266 1106h-205v184h605v-184h-205v-922h205v-184h-605v184h205v922zM430 1444h-123l-174 246h174z" />
    <glyph glyph-name="Iacute.salt" horiz-adv-x="727" 
d="M266 1106h-205v184h605v-184h-205v-922h205v-184h-605v184h205v922zM430 1690h174l-174 -246h-123z" />
    <glyph glyph-name="Icircumflex.salt" horiz-adv-x="727" 
d="M266 1106h-205v184h605v-184h-205v-922h205v-184h-605v184h205v922zM627 1434h-164l-103 143l-102 -143h-164l185 245h163z" />
    <glyph glyph-name="Idieresis.salt" horiz-adv-x="727" 
d="M266 1106h-205v184h605v-184h-205v-922h205v-184h-605v184h205v922zM297 1546q0 -47 -33 -79.5t-80 -32.5t-79.5 32.5t-32.5 79.5t32.5 80t79.5 33t80 -33t33 -80zM645 1546q0 -47 -32.5 -79.5t-80.5 -32.5q-47 0 -79.5 32.5t-32.5 79.5t32.5 80t79.5 33t80 -33t33 -80z
" />
    <glyph glyph-name="Idotaccent.salt" horiz-adv-x="727" 
d="M266 1106h-205v184h605v-184h-205v-922h205v-184h-605v184h205v922zM471 1546q0 -47 -32.5 -79.5t-80.5 -32.5q-47 0 -79.5 32.5t-32.5 79.5t32.5 80t79.5 33t80 -33t33 -80z" />
    <glyph glyph-name="Imacron.salt" horiz-adv-x="727" 
d="M266 1106h-205v184h605v-184h-205v-922h205v-184h-605v184h205v922zM614 1464h-512v133h512v-133z" />
    <glyph glyph-name="Iogonek.salt" horiz-adv-x="727" 
d="M61 0v184h205v922h-205v184h605v-184h-205v-922h205v-184q-20 -25 -37 -51q-14 -23 -24.5 -52.5t-10.5 -60.5q0 -39 26.5 -65.5t65.5 -26.5q16 0 29.5 1t25.5 3t27 6v-102q-16 -4 -33 -6q-14 -2 -32.5 -3t-36.5 -1q-92 0 -143.5 48t-51.5 126q0 39 10.5 72.5t24.5 58.5
q16 29 37 53h-482z" />
    <glyph glyph-name="yacute.salt" horiz-adv-x="1054" 
d="M748 143q-31 -35 -68 -61q-33 -23 -80 -42.5t-108 -19.5q-78 0 -144.5 30t-117 82t-79 126t-28.5 162v502h184v-502q0 -47 17.5 -88t47 -72t68.5 -48t82 -17q45 0 86 17t72 48t49.5 72t18.5 88v502h184v-881q0 -84 -30 -155.5t-83 -124t-129 -81t-168 -28.5
q-80 0 -145.5 23.5t-114.5 63.5t-82 94t-47 116h184q23 -47 72 -85t133 -38q100 0 163 61.5t63 153.5v102zM584 1321h174l-174 -246h-123z" />
    <glyph glyph-name="ydieresis.salt" horiz-adv-x="1054" 
d="M748 143q-31 -35 -68 -61q-33 -23 -80 -42.5t-108 -19.5q-78 0 -144.5 30t-117 82t-79 126t-28.5 162v502h184v-502q0 -47 17.5 -88t47 -72t68.5 -48t82 -17q45 0 86 17t72 48t49.5 72t18.5 88v502h184v-881q0 -84 -30 -155.5t-83 -124t-129 -81t-168 -28.5
q-80 0 -145.5 23.5t-114.5 63.5t-82 94t-47 116h184q23 -47 72 -85t133 -38q100 0 163 61.5t63 153.5v102zM471 1178q0 -47 -32.5 -80t-80.5 -33q-47 0 -79.5 32.5t-32.5 80.5q0 47 32.5 79.5t79.5 32.5t80 -32.5t33 -79.5zM819 1178q0 -47 -32.5 -80t-79.5 -33t-80 32.5
t-33 80.5q0 47 32.5 79.5t80.5 32.5q47 0 79.5 -32.5t32.5 -79.5z" />
    <glyph glyph-name="zero.frac" horiz-adv-x="614" 
d="M430 987q0 104 -38 151.5t-85 47.5t-85 -47t-38 -152q0 -104 38 -151.5t85 -47.5t85 47.5t38 151.5zM553 987q0 -74 -19.5 -132t-53.5 -98t-79 -60.5t-94 -20.5t-94 20.5t-79 60.5t-53.5 98t-19.5 132t19.5 132.5t53.5 98t79 60t94 20.5t94 -20.5t79 -60t53.5 -98
t19.5 -132.5z" />
    <glyph glyph-name="one.frac" horiz-adv-x="430" 
d="M205 1290h92v-604h-123v451l-72 -41l-61 92z" />
    <glyph glyph-name="two.frac" horiz-adv-x="532" 
d="M236 799h235v-113h-410v92l226 236q23 23 42 47t19 55t-21.5 51.5t-60.5 20.5q-92 0 -92 -92h-113q0 92 56.5 148t148.5 56t148.5 -53t56.5 -131q0 -53 -22.5 -85t-38.5 -48z" />
    <glyph glyph-name="three.frac" horiz-adv-x="552" 
d="M410 1004q23 -12 41 -33q16 -16 28.5 -44t12.5 -67q0 -78 -57.5 -131t-158.5 -53q-100 0 -157.5 56t-57.5 149h113q0 -39 24.5 -66t77.5 -27q47 0 70 26t23 56q0 31 -22.5 56.5t-70.5 25.5h-61v103h51q39 0 60.5 19.5t21.5 41.5q0 31 -21.5 51.5t-60.5 20.5
q-82 0 -82 -82h-112q0 86 56 140t148 54q86 0 140.5 -52t54.5 -122q0 -35 -10 -58.5t-21 -37.5q-14 -16 -30 -26z" />
    <glyph glyph-name="four.frac" horiz-adv-x="512" 
d="M389 911h72v-112h-72v-113h-123v113h-256v92l246 399h133v-379zM266 911v195l-123 -195h123z" />
    <glyph glyph-name="five.frac" horiz-adv-x="563" 
d="M307 1096q86 0 140.5 -56.5t54.5 -148.5t-61.5 -153.5t-153.5 -61.5t-150.5 53t-75.5 131h123q8 -31 32 -51.5t71 -20.5q39 0 65.5 28t26.5 75t-26.5 74.5t-65.5 27.5q-47 0 -70.5 -19.5t-32.5 -41.5h-102l41 358h338v-112h-236l-10 -103q8 4 23 10q10 4 28 7.5t41 3.5z
" />
    <glyph glyph-name="six.frac" horiz-adv-x="542" 
d="M276 1096q45 0 85 -16.5t69 -44t45.5 -64.5t16.5 -80q0 -92 -61.5 -153.5t-154.5 -61.5q-92 0 -153.5 61.5t-61.5 153.5q0 39 14.5 77t30.5 68q20 37 48 70l122 184h134zM276 993q-39 0 -65.5 -27.5t-26.5 -74.5t27 -75t65 -28q39 0 66 28t27 75t-27 74.5t-66 27.5z" />
    <glyph glyph-name="seven.frac" horiz-adv-x="481" 
d="M72 1290h399v-71l-246 -533h-123l226 492h-256v112z" />
    <glyph glyph-name="eight.frac" horiz-adv-x="532" 
d="M266 676q-92 0 -148.5 53t-56.5 131q0 39 12.5 66.5t28.5 44.5q18 20 41 33q-18 12 -30 30q-12 16 -21.5 39t-9.5 53q0 70 53 122t131 52t131.5 -52t53.5 -122q0 -31 -10.5 -53t-20.5 -39q-14 -18 -31 -30q23 -12 41 -33q16 -16 28.5 -44t12.5 -67q0 -78 -56.5 -131
t-148.5 -53zM266 1188q-31 0 -51 -20.5t-20 -49.5q0 -25 20.5 -44t50.5 -19q31 0 51.5 19.5t20.5 43.5q0 29 -20.5 49.5t-51.5 20.5zM266 952q-39 0 -60.5 -25.5t-21.5 -56.5t21.5 -56.5t60.5 -25.5t60.5 26t21.5 56q0 31 -21.5 56.5t-60.5 25.5z" />
    <glyph glyph-name="nine.frac" horiz-adv-x="542" 
d="M266 881q-47 0 -86 16t-67.5 44t-45 64.5t-16.5 79.5q0 92 61.5 153.5t153.5 61.5t153.5 -61t61.5 -154q0 -39 -15 -76.5t-32 -68.5q-20 -37 -45 -70l-123 -184h-133zM266 983q39 0 65.5 27.5t26.5 74.5t-26.5 75t-65.5 28t-65.5 -27.5t-26.5 -75.5q0 -47 26.5 -74.5
t65.5 -27.5z" />
    <glyph glyph-name="zero.dnom" horiz-adv-x="614" 
d="M430 301q0 104 -38 151.5t-85 47.5t-85 -47t-38 -152q0 -104 38 -151.5t85 -47.5t85 47.5t38 151.5zM553 301q0 -74 -19.5 -132t-53.5 -98t-79 -60.5t-94 -20.5t-94 20.5t-79 60.5t-53.5 98t-19.5 132t19.5 132.5t53.5 98t79 60t94 20.5t94 -20.5t79 -60t53.5 -98
t19.5 -132.5z" />
    <glyph glyph-name="one.dnom" horiz-adv-x="430" 
d="M205 604h92v-604h-123v451l-72 -41l-61 92z" />
    <glyph glyph-name="two.dnom" horiz-adv-x="532" 
d="M236 113h235v-113h-410v92l226 236q23 23 42 47t19 55t-21.5 51.5t-60.5 20.5q-92 0 -92 -92h-113q0 92 56.5 148t148.5 56t148.5 -53t56.5 -131q0 -53 -22.5 -85t-38.5 -48z" />
    <glyph glyph-name="three.dnom" horiz-adv-x="552" 
d="M410 317q23 -12 41 -32q16 -16 28.5 -44t12.5 -67q0 -78 -57.5 -131t-158.5 -53q-100 0 -157.5 56t-57.5 149h113q0 -39 24.5 -66t77.5 -27q47 0 70 26t23 56q0 31 -22.5 56.5t-70.5 25.5h-61v103h51q39 0 60.5 19.5t21.5 41.5q0 31 -21.5 51.5t-60.5 20.5q-82 0 -82 -82
h-112q0 86 56 140t148 54q86 0 140.5 -52t54.5 -122q0 -35 -10 -58.5t-21 -37.5q-14 -17 -30 -27z" />
    <glyph glyph-name="four.dnom" horiz-adv-x="512" 
d="M389 225h72v-112h-72v-113h-123v113h-256v92l246 399h133v-379zM266 225v195l-123 -195h123z" />
    <glyph glyph-name="five.dnom" horiz-adv-x="563" 
d="M307 410q86 0 140.5 -56.5t54.5 -148.5t-61.5 -153.5t-153.5 -61.5t-150.5 53t-75.5 131h123q8 -31 32 -51.5t71 -20.5q39 0 65.5 28t26.5 75t-26.5 74.5t-65.5 27.5q-47 0 -70.5 -19.5t-32.5 -41.5h-102l41 358h338v-112h-236l-10 -103q8 4 23 10q10 4 28 7.5t41 3.5z
" />
    <glyph glyph-name="six.dnom" horiz-adv-x="542" 
d="M276 410q45 0 85 -16.5t69 -44t45.5 -64.5t16.5 -80q0 -92 -61.5 -153.5t-154.5 -61.5q-92 0 -153.5 61.5t-61.5 153.5q0 39 14.5 76.5t30.5 68.5q20 37 48 70l122 184h134zM276 307q-39 0 -65.5 -27.5t-26.5 -74.5t27 -75t65 -28q39 0 66 28t27 75t-27 74.5t-66 27.5z
" />
    <glyph glyph-name="seven.dnom" horiz-adv-x="481" 
d="M72 604h399v-72l-246 -532h-123l226 492h-256v112z" />
    <glyph glyph-name="eight.dnom" horiz-adv-x="532" 
d="M266 -10q-92 0 -148.5 53t-56.5 131q0 39 12.5 66.5t28.5 44.5q18 20 41 32q-18 12 -30 31q-12 16 -21.5 39t-9.5 53q0 70 53 122t131 52t131.5 -52t53.5 -122q0 -31 -10.5 -53t-20.5 -39q-14 -18 -31 -31q23 -12 41 -32q16 -16 28.5 -44t12.5 -67q0 -78 -56.5 -131
t-148.5 -53zM266 502q-31 0 -51 -20.5t-20 -49.5q0 -25 20.5 -44t50.5 -19q31 0 51.5 19.5t20.5 43.5q0 29 -20.5 49.5t-51.5 20.5zM266 266q-39 0 -60.5 -25.5t-21.5 -56.5t21.5 -56.5t60.5 -25.5t60.5 26t21.5 56q0 31 -21.5 56.5t-60.5 25.5z" />
    <glyph glyph-name="nine.dnom" horiz-adv-x="542" 
d="M266 195q-47 0 -86 16t-67.5 44t-45 64.5t-16.5 79.5q0 92 61.5 153.5t153.5 61.5t153.5 -61t61.5 -154q0 -39 -15 -76.5t-32 -68.5q-20 -37 -45 -70l-123 -184h-133zM266 297q39 0 65.5 27.5t26.5 74.5t-26.5 75t-65.5 28t-65.5 -28t-26.5 -75t26.5 -74.5t65.5 -27.5z
" />
    <glyph glyph-name="zero.tnum" 
d="M829 645q0 119 -27.5 209t-72.5 150.5t-102.5 91t-114.5 30.5t-114.5 -30.5t-102.5 -91t-72.5 -150.5t-27.5 -209t27.5 -209t72.5 -150.5t102.5 -91t114.5 -30.5t114.5 30.5t102.5 91t72.5 150.5t27.5 209zM1024 645q0 -158 -41 -279.5t-111.5 -205.5t-163 -127
t-196.5 -43t-196.5 43t-163 127t-111.5 205.5t-41 279.5t41 280t111.5 205.5t163 126.5t196.5 43t196.5 -43t163 -126.5t111.5 -205.5t41 -280z" />
    <glyph glyph-name="one.tnum" 
d="M440 184v840l-174 -113l-92 154l328 225h133v-1106h266v-184h-727v184h266z" />
    <glyph glyph-name="two.tnum" 
d="M932 184v-184h-830v143l512 553q35 37 62 76q23 35 42 76t19 84q0 86 -58 140t-167 54q-100 0 -162.5 -62.5t-62.5 -162.5h-195q0 84 31 156.5t87 127t133 85t169 30.5t169 -30.5t133 -81.5t87 -121t31 -145q0 -61 -29 -123t-63 -109q-41 -55 -92 -106l-367 -400h551z
" />
    <glyph glyph-name="three.tnum" 
d="M82 942q4 74 36 138.5t86 113.5t130 77.5t168 28.5q88 0 162.5 -29.5t130 -79.5t86 -114.5t30.5 -134.5t-25.5 -120t-56.5 -83q-37 -37 -81 -63q57 -27 102 -70q39 -37 70.5 -98.5t31.5 -149.5q0 -74 -31.5 -140t-90 -116.5t-141.5 -81t-187 -30.5q-96 0 -174 28.5
t-133.5 77.5t-87 113.5t-35.5 138.5h194q4 -35 22.5 -67.5t49.5 -59t73 -42t91 -15.5q123 0 189.5 59.5t66.5 145.5t-66.5 145t-189.5 59h-82v175h82q100 0 157.5 53t57.5 131q0 86 -57.5 140t-157.5 54t-158.5 -53t-67.5 -131h-194z" />
    <glyph glyph-name="four.tnum" 
d="M963 256h-144v-256h-194v256h-574v164l543 870h225v-850h144v-184zM625 440v564l-349 -564h349z" />
    <glyph glyph-name="five.tnum" 
d="M532 870q88 0 167 -33.5t137.5 -94t92.5 -140.5t34 -172t-35 -172t-95.5 -140.5t-142.5 -94t-178 -33.5t-174 28.5t-133 77.5t-87 113.5t-36 138.5h194q4 -35 22.5 -67.5t49.5 -59t73 -42t91 -15.5q53 0 100 20.5t82 55t54.5 84t19.5 106.5t-19.5 106.5t-54.5 84t-82 55
t-100 20.5q-61 0 -106.5 -24.5t-73.5 -53.5q-35 -35 -56 -75h-163l82 747h686v-184h-521l-32 -307q23 18 55 35q27 14 64.5 25t84.5 11z" />
    <glyph glyph-name="six.tnum" 
d="M512 -10q-96 0 -178 33.5t-142.5 94t-95.5 140.5t-35 172q0 57 19.5 114.5t42.5 102.5q27 53 61 101l359 542h215l-287 -430q10 2 25 4q10 2 25.5 4t31.5 2q80 0 154.5 -33.5t131 -94t90.5 -140.5t34 -172t-35 -172t-95.5 -140.5t-142.5 -94t-178 -33.5zM256 430
q0 -57 19.5 -106.5t54.5 -84t82 -55t100 -20.5t100 20.5t82 55t54.5 84t19.5 106.5t-19.5 106.5t-54.5 84t-82 55t-100 20.5t-100 -20.5t-82 -55t-54.5 -84t-19.5 -106.5z" />
    <glyph glyph-name="seven.tnum" 
d="M952 1290v-133l-532 -1157h-205l512 1106h-584v184h809z" />
    <glyph glyph-name="eight.tnum" 
d="M512 -10q-100 0 -181 30.5t-138.5 82t-89 120t-31.5 146.5q0 92 31.5 154.5t70.5 101.5q45 45 102 71q-43 27 -77 64q-29 33 -52.5 80t-23.5 112q0 70 28.5 132.5t81 110.5t124 76.5t155.5 28.5t155.5 -28.5t124 -76.5t81 -110.5t28.5 -132.5q0 -66 -24.5 -112.5
t-53.5 -79.5q-35 -37 -75 -64q57 -27 102 -71q39 -39 70.5 -101.5t31.5 -154.5q0 -78 -31.5 -146.5t-89 -120t-138.5 -82t-181 -30.5zM512 594q-117 0 -181.5 -61.5t-64.5 -153.5t64.5 -153.5t181.5 -61.5t181.5 61.5t64.5 153.5t-64.5 153.5t-181.5 61.5zM512 768
q86 0 140.5 52t54.5 122q0 78 -54.5 131t-140.5 53t-140.5 -53t-54.5 -131q0 -70 54.5 -122t140.5 -52z" />
    <glyph glyph-name="nine.tnum" 
d="M512 1300q96 0 178 -33.5t142.5 -94t95.5 -140.5t35 -172q0 -59 -19.5 -115.5t-42.5 -101.5q-27 -53 -61 -100l-359 -543h-215l287 430q-10 -4 -23 -6q-10 -2 -25.5 -3t-33.5 -1q-80 0 -154.5 33.5t-131 94t-90.5 140.5t-34 172t35 172t95.5 140.5t142.5 94t178 33.5z
M768 860q0 57 -19.5 106.5t-54.5 84t-82 55t-100 20.5t-100 -20.5t-82 -55t-54.5 -83.5t-19.5 -107q0 -57 19.5 -106t54.5 -84t82 -55.5t100 -20.5t100 20.5t82 55.5t54.5 84t19.5 106z" />
    <glyph glyph-name="at.case" horiz-adv-x="1536" 
d="M778 1300q145 0 272.5 -53t221.5 -144t148.5 -212t54.5 -256q0 -88 -24 -156.5t-62.5 -116t-91 -72t-109.5 -24.5q-61 0 -104.5 16.5t-69.5 39.5q-33 25 -51 57q-23 -33 -56 -57q-29 -23 -70.5 -39.5t-99.5 -16.5q-66 0 -123 25.5t-100 72t-68.5 110t-25.5 140.5
q0 76 25.5 140.5t68.5 110.5t100.5 72t122.5 26q49 0 87 -15.5t65 -32.5q31 -20 53 -45l31 82h112v-399q0 -86 28 -120t75 -34q53 0 93 52.5t40 183.5q0 106 -43 203.5t-117 170t-173 115.5t-210 43t-210 -43t-172.5 -117.5t-116.5 -176t-43 -216.5t43 -216t116.5 -176
t173 -118t209.5 -43q66 0 119 14.5t92 30.5q45 20 82 48l78 -117q-49 -33 -107 -55q-49 -20 -116.5 -37t-147.5 -17q-145 0 -272 54.5t-221.5 147.5t-148.5 218t-54 266t54 266.5t148.5 218.5t221.5 147t272 54zM758 399q86 0 140 57.5t54 157.5t-54 157.5t-140 57.5
q-39 0 -74 -16t-61.5 -45t-43 -69t-16.5 -85q0 -47 16.5 -86t43 -67.5t61.5 -45t74 -16.5z" />
    <glyph glyph-name="parenleft.case" horiz-adv-x="563" 
d="M276 614q0 -166 38 -305t85 -243q53 -121 123 -220l-133 -92q-80 104 -143 238q-53 115 -98.5 272.5t-45.5 349.5q0 193 45.5 350.5t98.5 272.5q63 133 143 238l133 -93q-70 -98 -123 -219q-47 -104 -85 -243.5t-38 -305.5z" />
    <glyph glyph-name="parenright.case" horiz-adv-x="563" 
d="M287 614q0 166 -38 305.5t-85 243.5q-53 121 -123 219l133 93q80 -104 143 -238q53 -115 98.5 -272.5t45.5 -350.5t-45 -350.5t-99 -271.5q-63 -133 -143 -238l-133 92q70 98 123 220q47 104 85 243t38 305z" />
    <glyph glyph-name="bracketleft.case" horiz-adv-x="604" 
d="M328 -51h235v-164h-409v1659h409v-164h-235v-1331z" />
    <glyph glyph-name="bracketright.case" horiz-adv-x="604" 
d="M276 1280h-235v164h410v-1659h-410v164h235v1331z" />
    <glyph glyph-name="braceleft.case" horiz-adv-x="634" 
d="M92 686q47 0 75 27.5t28 74.5v390q0 266 282 266h117v-164h-123q-47 0 -74.5 -27.5t-27.5 -74.5v-390q0 -53 -17.5 -87.5t-40.5 -53.5q-25 -23 -55 -33q31 -10 55 -32q23 -20 40.5 -54t17.5 -88v-389q0 -47 27.5 -74.5t74.5 -27.5h123v-164h-117q-283 0 -282 266v389
q0 47 -28 75t-75 28v143z" />
    <glyph glyph-name="braceright.case" horiz-adv-x="634" 
d="M543 543q-47 0 -75 -28t-28 -75v-389q0 -266 -282 -266h-117v164h123q47 0 74.5 27.5t27.5 74.5v389q0 53 16.5 87t39.5 55q25 23 57 32q-33 10 -57 33q-23 18 -39.5 53t-16.5 88v390q0 47 -27.5 74.5t-74.5 27.5h-123v164h117q283 0 282 -266v-390q0 -47 28 -74.5
t75 -27.5v-143z" />
    <glyph glyph-name="exclamdown.case" horiz-adv-x="512" 
d="M369 0h-226l31 963h164zM369 1188q0 -47 -33 -80t-80 -33t-80 33t-33 80t33 79.5t80 32.5t80 -32.5t33 -79.5z" />
    <glyph glyph-name="questiondown.case" horiz-adv-x="880" 
d="M61 358q0 74 21.5 125.5t55.5 90t72 72.5t71.5 74t55 92t21.5 130v21h185v-21q0 -98 -21.5 -163.5t-55.5 -113t-72 -81t-71.5 -66.5t-55 -69.5t-21.5 -90.5q0 -78 54 -131t140 -53t140.5 59.5t54.5 176.5v20h184v-20q0 -96 -28.5 -174t-80 -132.5t-121 -84t-149.5 -29.5
t-149.5 28.5t-120.5 78.5t-80 116.5t-29 144.5zM338 1188q0 47 32.5 79.5t80.5 32.5q47 0 79.5 -32.5t32.5 -79.5t-32.5 -80t-79.5 -33t-80 33t-33 80z" />
    <glyph glyph-name="guillemotleft.case" horiz-adv-x="911" 
d="M471 287h-184l-226 327l226 328h184l-225 -328zM850 287h-184l-226 327l226 328h184l-225 -328z" />
    <glyph glyph-name="guillemotright.case" horiz-adv-x="911" 
d="M666 614l-226 328h185l225 -328l-225 -327h-185zM287 614l-226 328h185l225 -328l-225 -327h-185z" />
    <glyph glyph-name="guilsinglleft.case" horiz-adv-x="532" 
d="M471 287h-184l-226 327l226 328h184l-225 -328z" />
    <glyph glyph-name="guilsinglright.case" horiz-adv-x="532" 
d="M287 614l-226 328h185l225 -328l-225 -327h-185z" />
    <glyph glyph-name="hyphen.case" horiz-adv-x="716" 
d="M655 594h-594v164h594v-164z" />
    <glyph glyph-name="endash.case" horiz-adv-x="962" 
d="M901 594h-840v164h840v-164z" />
    <glyph glyph-name="emdash.case" horiz-adv-x="1464" 
d="M1403 594h-1342v164h1342v-164z" />
    <glyph glyph-name="glyph561" horiz-adv-x="3149" 
d="M569 879h-147v-408h-72v408h-145v63h364v-63zM1063 811q66 0 112 -50t46 -122q0 -74 -46.5 -124t-111.5 -50q-59 0 -96 43v-162h-70v459h49l19 -39q16 20 41.5 32.5t56.5 12.5zM1057 528q39 0 67.5 32t28.5 79q0 43 -28.5 74.5t-67.5 31.5q-41 0 -68.5 -31.5t-27.5 -74.5
q0 -47 27.5 -79t68.5 -32zM772 805h76l-158 -389q-33 -70 -100 -70q-14 0 -21 2v58q47 0 64 40l12 33l-129 326h76l90 -238zM1436 811q66 0 110.5 -49t44.5 -121q0 -4 -1 -9t-1 -9v-13h-243q4 -35 29.5 -59.5t60.5 -24.5q25 0 45 8.5t30 26.5h72q-18 -47 -59 -71.5
t-88 -24.5q-66 0 -113 50t-47 124q0 35 12 66.5t33.5 55t51.5 37t63 13.5zM1526 666q-2 35 -30 58.5t-60 23.5q-33 0 -59.5 -21.5t-30.5 -60.5h180zM1923 879h-147v-408h-72v408h-145v63h364v-63zM2417 811q66 0 111.5 -50t45.5 -122q0 -74 -46 -124t-111 -50q-59 0 -97 43
v-162h-69v459h49l18 -39q16 20 42 32.5t57 12.5zM2410 528q39 0 68 32t29 79q0 43 -29 74.5t-68 31.5q-41 0 -68.5 -31.5t-27.5 -74.5q0 -47 27.5 -79t68.5 -32zM2126 805h76l-158 -389q-33 -70 -100 -70q-14 0 -21 2v58q47 0 64 40l12 33l-129 326h76l90 -238zM2789 811
q66 0 111 -49t45 -121q0 -4 -1 -9t-1 -9v-13h-244q4 -35 30 -59.5t60 -24.5q25 0 45.5 8.5t30.5 26.5h72q-18 -47 -59.5 -71.5t-88.5 -24.5q-66 0 -112.5 50t-46.5 124q0 35 12 66.5t33.5 55t51 37t62.5 13.5zM2879 666q-2 35 -29.5 58.5t-60.5 23.5t-59.5 -21.5
t-30.5 -60.5h180z" />
    <glyph glyph-name="bullet.case" horiz-adv-x="798" 
d="M604 686q0 -86 -59 -145t-146 -60q-86 0 -145 60q-59 59 -59 145t59 145t145 60q86 0 146 -60q59 -59 59 -145z" />
    <glyph glyph-name="periodcentered.case" horiz-adv-x="450" 
d="M338 686q0 -47 -33 -80t-80 -33t-79.5 33t-32.5 80t32.5 80t79.5 33t80 -33t33 -80z" />
    <glyph glyph-name="zero.oldstyle" horiz-adv-x="1167" 
d="M307 461q0 -66 21.5 -120t59.5 -94t88 -61.5t108 -21.5q57 0 107 21.5t88 61.5t59.5 94t21.5 120t-21.5 120t-59.5 94t-88 61.5t-107 21.5t-107.5 -21.5t-88.5 -61.5t-59.5 -94t-21.5 -120zM1055 461q0 -100 -36 -186.5t-99.5 -150t-149.5 -99t-186 -35.5t-186.5 35.5
t-150 99t-99 149.5t-35.5 187q0 100 35.5 186t99 149.5t149.5 99.5t187 36q100 0 186 -36t149.5 -99.5t99.5 -149.5t36 -186z" />
    <glyph glyph-name="one.oldstyle" horiz-adv-x="645" 
d="M512 922v-922h-195v655l-174 -112l-92 153l328 226h133z" />
    <glyph glyph-name="two.oldstyle" horiz-adv-x="942" 
d="M850 184v-184h-758v123l410 287q61 41 102 87t41 107t-48 107.5t-126 46.5q-86 0 -132 -43t-63 -121h-194q8 74 38 135.5t80 106.5t118.5 70.5t152.5 25.5q80 0 147.5 -26.5t116.5 -70.5t77 -101.5t28 -119.5q0 -57 -15.5 -102t-43 -83t-67.5 -71.5t-89 -70.5l-144 -103
h369z" />
    <glyph glyph-name="three.oldstyle" horiz-adv-x="1003" 
d="M727 31q0 100 -68.5 167.5t-177.5 67.5q-29 0 -49 -3t-35 -7q-16 -6 -28 -10l-93 92l318 399h-471v185h747v-123l-297 -369q74 -12 137.5 -45t110.5 -85t74 -120.5t27 -148.5q0 -84 -33 -159t-91.5 -130t-139 -88t-177.5 -33q-100 0 -180 28.5t-136 78t-88 114t-36 138.5
h195q4 -35 22 -68t50 -59.5t76 -42t97 -15.5q109 0 177.5 68t68.5 168z" />
    <glyph glyph-name="four.oldstyle" horiz-adv-x="1015" 
d="M952 0h-143v-369h-195v369h-573v164l543 758h225v-738h143v-184zM614 184v492l-348 -492h348z" />
    <glyph glyph-name="five.oldstyle" horiz-adv-x="1034" 
d="M532 502q88 0 167 -34t138 -94q58 -60 92 -141q34 -80 34 -172t-35 -172t-95 -140t-143 -94q-82 -34 -178 -34t-174 29t-133 78t-87 113q-32 65 -36 139h194q4 -35 23 -68q18 -33 49 -59q31 -27 73 -42t91 -16q53 0 100 21q47 20 82 55t55 84q19 49 19 106t-19 107
q-19 49 -55 84q-35 35 -82 55t-100 21q-61 0 -106 -25t-74 -53q-35 -35 -56 -76h-163l82 748h686v-185h-521l-32 -307q23 18 55 35q27 14 64 25q38 12 85 12z" />
    <glyph glyph-name="six.oldstyle" 
d="M512 -10q-96 0 -178 34t-143 94q-60 60 -95 140t-35 172q0 57 20 115q19 57 42 102q27 53 61 101l359 542h215l-287 -430q10 2 25 4q10 2 25 4t32 2q80 0 155 -33q75 -34 131 -95q56 -60 90 -140t34 -172t-35 -172t-95 -140t-143 -94q-82 -34 -178 -34zM256 430
q0 -57 19 -106t55 -84q35 -35 82 -56q47 -20 100 -20t100 20t82 56q35 35 55 84q19 49 19 106t-19 107q-19 49 -55 84q-35 35 -82 55t-100 20t-100 -20t-82 -55t-55 -84q-19 -50 -19 -107z" />
    <glyph glyph-name="seven.oldstyle" horiz-adv-x="911" 
d="M870 922v-134l-532 -1157h-205l512 1106h-584v185h809z" />
    <glyph glyph-name="eight.oldstyle" horiz-adv-x="1003" 
d="M502 -10q-100 0 -181 30q-81 31 -139 82q-57 51 -89 120t-32 147q0 92 32 154t71 102q45 45 102 71q-43 27 -78 64q-29 33 -52 80q-24 47 -23 112q0 70 28 132q29 62 81 111q52 48 124 77t156 28q84 0 155 -28q72 -29 124 -77t81 -111q29 -62 29 -132q0 -66 -25 -112
q-25 -47 -53 -80q-35 -37 -76 -64q57 -27 103 -71q39 -39 70 -102q32 -62 32 -154q0 -78 -32 -147t-89 -120t-138 -82q-81 -30 -181 -30zM502 594q-117 0 -181 -62q-65 -61 -65 -153t65 -154q65 -61 181 -61q117 0 181 61q65 61 65 154q0 92 -65 153q-64 62 -181 62z
M502 768q86 0 140 52t54 122q0 78 -54 131t-140 53t-141 -53q-54 -53 -54 -131q0 -70 54 -122q55 -52 141 -52z" />
    <glyph glyph-name="nine.oldstyle" 
d="M512 932q96 0 178 -34t143 -94q60 -60 95 -140t35 -172q0 -59 -20 -116q-19 -56 -42 -102q-27 -53 -61 -100l-359 -543h-215l287 430q-10 -4 -23 -6q-10 -2 -25 -3t-34 -1q-80 0 -155 34t-131 94t-90 140t-34 173q0 92 35 172t95 140t143 94q82 34 178 34zM768 492
q0 57 -19 106t-55 84q-35 35 -82 55t-100 21q-53 0 -100 -21q-47 -20 -82 -55t-55 -84q-19 -49 -19 -106t19 -107q19 -49 55 -84q35 -35 82 -55t100 -21q53 0 100 21q47 20 82 55t55 84q19 50 19 107z" />
    <glyph glyph-name="zero.tnum.oldstyle" 
d="M236 461q0 -66 21 -120q22 -54 59 -94q38 -40 88 -62t108 -21q57 0 108 21q50 22 88 62t59 94q22 54 21 120q0 66 -21 120q-22 54 -59 94q-38 40 -88 61q-50 22 -108 22q-57 0 -108 -22q-50 -22 -88 -61q-38 -40 -59 -94t-21 -120zM983 461q0 -100 -36 -187
q-36 -86 -99 -149t-150 -99q-86 -36 -186 -36t-186 36t-150 99q-63 63 -99 149t-36 187q0 100 36 186t99 150q63 63 150 99q86 36 186 36t186 -36t150 -99q63 -63 99 -150q36 -86 36 -186z" />
    <glyph glyph-name="one.tnum.oldstyle" 
d="M655 922v-738h267v-184h-727v184h266v471l-174 -112l-92 153l327 226h133z" />
    <glyph glyph-name="two.tnum.oldstyle" 
d="M891 184v-184h-758v123l410 287q61 41 102 87t41 107t-48 108q-48 46 -126 46q-86 0 -132 -43t-63 -121h-194q8 74 38 135t80 107q50 45 118 70q69 26 153 26q80 0 147 -27q68 -27 117 -70q49 -44 77 -102q28 -57 28 -119q0 -57 -16 -102q-15 -45 -43 -83t-67 -72
q-40 -34 -89 -70l-144 -103h369z" />
    <glyph glyph-name="three.tnum.oldstyle" 
d="M737 31q0 100 -68 168q-69 68 -177 67q-29 0 -50 -3q-20 -3 -34 -7q-16 -6 -29 -10l-92 92l317 399h-471v185h748v-123l-297 -369q74 -12 137 -45t110 -85t74 -121t27 -148q0 -84 -33 -159t-91 -130t-139 -88t-177 -33q-100 0 -181 29q-80 29 -136 78t-88 113
q-32 65 -36 139h195q4 -35 22 -68t50 -59q32 -27 76 -42t98 -16q109 0 177 68t68 168z" />
    <glyph glyph-name="four.tnum.oldstyle" 
d="M963 0h-144v-369h-194v369h-574v164l543 758h225v-738h144v-184zM625 184v492l-349 -492h349z" />
    <glyph glyph-name="five.tnum.oldstyle" 
d="M522 498q88 0 167 -34t137 -94t93 -141q34 -80 33 -172q0 -92 -34 -172q-35 -80 -96 -140q-60 -60 -142 -94t-178 -34t-174 29t-133 78t-87 113q-32 65 -36 138h194q4 -35 23 -67q18 -33 49 -60t73 -42t91 -15q53 0 100 21q47 20 82 55t54 84t20 106q0 57 -20 107
q-19 49 -54 84t-82 55t-100 21q-61 0 -107 -25q-45 -25 -73 -53q-35 -35 -56 -76h-164l82 748h686v-185h-520l-33 -307q23 18 56 35q27 14 64 25q38 12 85 12z" />
    <glyph glyph-name="six.tnum.oldstyle" 
d="M512 -10q-96 0 -178 34t-143 94q-60 60 -95 140t-35 172q0 57 20 115q19 57 42 102q27 53 61 101l359 542h215l-287 -430q10 2 25 4q10 2 25 4t32 2q80 0 155 -33q75 -34 131 -95q56 -60 90 -140t34 -172t-35 -172t-95 -140t-143 -94q-82 -34 -178 -34zM256 430
q0 -57 19 -106t55 -84q35 -35 82 -56q47 -20 100 -20t100 20t82 56q35 35 55 84q19 49 19 106t-19 107q-19 49 -55 84q-35 35 -82 55t-100 20t-100 -20t-82 -55t-55 -84q-19 -50 -19 -107z" />
    <glyph glyph-name="seven.tnum.oldstyle" 
d="M932 918v-134l-533 -1157h-204l512 1106h-584v185h809z" />
    <glyph glyph-name="eight.tnum.oldstyle" 
d="M512 -10q-100 0 -181 30q-81 31 -138 82t-90 120q-32 69 -31 147q0 92 31 154q32 62 71 102q45 45 102 71q-43 27 -77 64q-29 33 -53 80t-23 112q0 70 29 132t80 111q52 48 124 77t156 28q84 0 156 -28q72 -29 124 -77t80 -111q29 -62 29 -132q0 -66 -24 -112
q-25 -47 -54 -80q-35 -37 -75 -64q57 -27 102 -71q39 -39 71 -102q32 -62 31 -154q0 -78 -31 -147q-32 -69 -90 -120q-57 -51 -138 -82q-81 -30 -181 -30zM512 594q-117 0 -181 -62q-65 -61 -65 -153t65 -154q65 -61 181 -61q117 0 181 61q65 61 65 154q0 92 -65 153
q-64 62 -181 62zM512 768q86 0 140 52t55 122q0 78 -55 131q-54 53 -140 53t-140 -53t-55 -131q0 -70 55 -122q54 -52 140 -52z" />
    <glyph glyph-name="nine.tnum.oldstyle" 
d="M512 932q96 0 178 -34t143 -94q60 -60 95 -140t35 -172q0 -59 -20 -116q-19 -56 -42 -102q-27 -53 -61 -100l-359 -543h-215l287 430q-10 -4 -23 -6q-10 -2 -25 -3t-34 -1q-80 0 -155 34t-131 94t-90 140t-34 173q0 92 35 172t95 140t143 94q82 34 178 34zM768 492
q0 57 -19 106t-55 84q-35 35 -82 55t-100 21q-53 0 -100 -21q-47 -20 -82 -55t-55 -84q-19 -49 -19 -106t19 -107q19 -49 55 -84q35 -35 82 -55t100 -21q53 0 100 21q47 20 82 55t55 84q19 50 19 107z" />
    <glyph glyph-name="plus.case" horiz-adv-x="931" 
d="M553 1034v-327h317v-164h-317v-328h-174v328h-318v164h318v327h174z" />
    <glyph glyph-name="less.case" horiz-adv-x="911" 
d="M829 287v-185l-747 390v122l747 390v-185l-522 -266z" />
    <glyph glyph-name="equal.case" horiz-adv-x="921" 
d="M860 901v-174h-799v174h799zM61 522h799v-174h-799v174z" />
    <glyph glyph-name="greater.case" horiz-adv-x="911" 
d="M604 553l-522 266v185l747 -390v-122l-747 -390v185z" />
    <glyph glyph-name="asciitilde.case" horiz-adv-x="921" 
d="M666 502q-49 0 -107 19q-57 19 -114 42q-56 23 -105 42t-84 20q-47 0 -75 -30t-27 -83h-154q0 139 70 213t186 74q49 0 106 -20q57 -19 114 -42q56 -23 106 -42q49 -19 84 -19q47 0 74 30q28 30 28 82h154q0 -139 -70 -213q-69 -73 -186 -73z" />
    <glyph glyph-name="logicalnot.case" horiz-adv-x="952" 
d="M911 891v-430h-174v266h-696v164h870z" />
    <glyph glyph-name="plusminus.case" horiz-adv-x="931" 
d="M379 1126h174v-327h317v-164h-317v-318h317v-174h-809v174h318v318h-318v164h318v327z" />
    <glyph glyph-name="minus.case" horiz-adv-x="911" 
d="M850 543h-789v164h789v-164z" />
    <glyph glyph-name="multiply.case" horiz-adv-x="921" 
d="M809 379l-113 -103l-235 246l-236 -246l-112 103l235 246l-235 245l112 103l236 -246l235 246l113 -103l-236 -245z" />
    </font>
</defs>
</svg>
