<?xml version="1.0" standalone="no"?>
<!DOCTYPE svg PUBLIC "-//W3C//DTD SVG 1.1//EN" "http://www.w3.org/Graphics/SVG/1.1/DTD/svg11.dtd" >
<svg xmlns="http://www.w3.org/2000/svg" xmlns:xlink="http://www.w3.org/1999/xlink" version="1.1">
<metadata>
Created by FontForge 20161003 at Mon Jun 10 05:53:24 2019
 By www-data
Copyright Esselte Corporation 1997.  Portions Copyright Microsoft Corporation1997.  All rights reserved.
</metadata>
<defs>
<font id="FREESCPT" horiz-adv-x="700" >
  <font-face 
    font-family="FREESCPT"
    font-weight="400"
    font-stretch="normal"
    units-per-em="2048"
    panose-1="3 8 4 2 3 2 5 11 4 4"
    ascent="1398"
    descent="-650"
    x-height="637"
    cap-height="1353"
    bbox="-548 -670 1738 1742"
    underline-thickness="102"
    underline-position="-351"
    unicode-range="U+0020-F002"
  />
<missing-glyph horiz-adv-x="512" 
d="M51 0v1365h410v-1365h-410zM410 51v1263h-308v-1263h308z" />
    <glyph glyph-name=".notdef" horiz-adv-x="512" 
d="M51 0v1365h410v-1365h-410zM410 51v1263h-308v-1263h308z" />
    <glyph glyph-name="glyph1" horiz-adv-x="0" 
 />
    <glyph glyph-name="glyph2" horiz-adv-x="512" 
 />
    <glyph glyph-name="space" unicode=" " horiz-adv-x="512" 
 />
    <glyph glyph-name="exclam" unicode="!" horiz-adv-x="536" 
d="M697 1339q22 0 34 -18q10 -15 10 -34q0 -41 -60 -154q-246 -461 -444 -770q-32 -51 -40 -68q-26 -49 -54 -49q-20 0 -35 23q-13 19 -13 41q0 28 29 78q8 14 70 109q79 133 157 263q26 45 156 284q46 84 73 132q32 57 61 118q22 45 56 45zM47 151q22 0 37 -20
q10 -13 10 -33q0 -47 -26 -99q-27 -55 -71 -55q-46 0 -46 52t32 106q29 49 64 49z" />
    <glyph glyph-name="quotedbl" unicode="&#x22;" horiz-adv-x="488" 
d="M562 1381q14 0 25 -8q17 -13 17 -35q0 -43 -119 -271q-42 -80 -64 -98q-16 -13 -31 -13q-35 0 -35 47q0 29 36 98q87 178 94 197q32 83 77 83zM792 1381q14 0 25 -8q17 -13 17 -35q0 -42 -119 -271q-41 -80 -64 -98q-16 -13 -31 -13q-35 0 -35 47q0 22 23 71q6 14 60 124
q37 76 47 100q33 83 77 83z" />
    <glyph glyph-name="numbersign" unicode="#" 
d="M358 749l19 5q68 16 109 26l63 15q89 162 152 264q75 122 83 132q16 21 32 21q20 0 36 -21q11 -14 11 -32q0 -19 -18 -49q-4 -7 -60 -98q-97 -152 -128 -205q73 -13 73 -60q0 -17 -10 -30q-12 -14 -27 -14q-10 0 -34 6q-17 4 -39 4h-16q-29 -53 -81 -166q77 -11 77 -59
q0 -17 -10 -30q-12 -14 -27 -14q-10 0 -34 6q-17 4 -35 4q-5 0 -17 -1q-32 -64 -70 -138q-53 -104 -98 -214l-9 -17q-16 -36 -22.5 -43.5t-19.5 -7.5q-17 0 -33 20q-10 14 -10 28q0 37 148 352q-16 -4 -42 -10q-35 -9 -99 -22q-13 -3 -41 -9q-18 -35 -40 -77
q-51 -100 -98 -214l-9 -17q-16 -36 -22.5 -43.5t-19.5 -7.5q-17 0 -33 20q-10 13 -10 28q0 33 122 296q-16 -1 -31 -1q-70 0 -70 45q0 25 19 41q16 14 34 14q8 0 22 -2q25 -4 45 -4q7 0 25 1q36 75 83 166q-23 -1 -27 -1q-71 0 -71 44q0 25 19 41q16 14 34 14q8 0 22 -2
q24 -4 44 -4q10 0 29 1q110 205 187 329q75 121 83 132q16 21 31 21q21 0 38 -21q10 -13 10 -31q0 -20 -18 -50q-4 -7 -60 -98q-110 -172 -161 -263zM305 651q-11 -24 -36 -78q-18 -38 -40 -83q88 21 127 30q29 7 56 14q37 73 82 159l-20 -5q-57 -15 -122 -28q-14 -2 -47 -9
z" />
    <glyph glyph-name="dollar" unicode="$" 
d="M437 643l-56 -97q49 -64 70 -96q54 -81 54 -153q0 -90 -64 -170q-60 -73 -164 -108q-70 -24 -141 -24q-16 0 -51 2l-27 -55q-17 -35 -43 -35q-12 0 -22 7q-11 9 -11 21q0 9 7 26l24 56q-136 52 -136 161q0 104 89 180q55 47 101 47q33 0 33 -31q0 -17 -29 -38
q-33 -23 -55 -60q-20 -34 -20 -68q0 -61 64 -97l220 409q-36 52 -53 85q-36 68 -36 130q0 112 87 201q110 113 337 141l41 62q21 31 46 31q32 0 32 -27q0 -12 -8 -28l-20 -38q149 -23 149 -141q0 -128 -176 -218q-115 -59 -242 -75zM503 753q93 17 165 59q98 57 98 119
q0 60 -84 60q-14 0 -33 -1zM550 972q-74 -10 -135 -54q-116 -82 -116 -195q0 -51 36 -110l26 45q-13 14 -13 30q0 48 64 56zM130 89q29 -2 48 -2q99 0 169 78q60 66 60 141q0 46 -40 101q-9 13 -38 47z" />
    <glyph glyph-name="percent" unicode="%" horiz-adv-x="1222" 
d="M538 1130q34 -13 50.5 -41.5t16.5 -72.5q0 -135 -109 -284q-120 -164 -231 -164q-57 0 -86 56q-18 35 -18 86q0 119 91 251q73 104 178 178q49 35 74 35q34 0 34 -44zM453 1076q-71 -55 -125 -135q-79 -115 -79 -222q0 -36 11.5 -54.5t33.5 -18.5q41 0 98 60
q65 68 103 168q29 75 29 126q0 34 -22 59q-15 17 -49 17zM1108 1194q18 0 31 -16q11 -13 11 -27q0 -83 -382 -474q-241 -249 -341 -388q-92 -128 -165 -257q-27 -47 -62 -47q-14 0 -26 10q-13 13 -13 29q0 27 66 132q74 117 251 330q65 78 261 282q162 166 271 326
q43 65 56 78q21 22 42 22zM1026 584q33 -14 49.5 -42.5t16.5 -71.5q0 -135 -109 -284q-119 -164 -230 -164q-57 0 -86 56q-18 36 -18 86q0 119 91 251q73 105 177 178q49 35 75 35q34 0 34 -44zM941 530q-70 -54 -125 -135q-79 -115 -79 -222q0 -36 11.5 -54.5t33.5 -18.5
q40 0 98 60q65 69 103 168q28 75 28 126q0 34 -22 59q-15 17 -48 17z" />
    <glyph glyph-name="ampersand" unicode="&#x26;" horiz-adv-x="1285" 
d="M606 751q17 -145 28 -207q12 -69 50 -233q103 152 124 266q-26 2 -34 3q-55 2 -71 13q-20 14 -20 41q0 24 13 39q16 18 42 18q9 0 49 -3q8 -1 15 -1q72 0 234 24q53 8 105 8q95 0 95 -66q0 -43 -36 -43q-17 0 -56 8q-20 5 -45 5q-50 0 -208 -32q-17 -85 -64 -194
q-53 -119 -108 -182q30 -53 51 -76q43 -48 113 -48q34 0 70 9q40 9 62 9q37 0 37 -37q0 -33 -46 -56q-68 -34 -149 -34q-132 0 -219 140q-133 -126 -257 -126q-141 0 -224 116q-57 79 -57 192q0 141 84 261q87 122 313 219q-8 65 -8 113q0 109 31 191q29 79 100 133
q65 49 140 49q62 0 103 -44q44 -46 44 -110q0 -87 -61 -179q-46 -67 -163 -140q-14 -8 -77 -46zM598 828q80 45 127 91q77 77 77 149q0 37 -20 63q-19 25 -48 25q-61 0 -106 -71q-35 -56 -35 -182q0 -19 5 -75zM504 700q-90 -42 -152 -98q-138 -124 -138 -268q0 -88 47 -150
q50 -67 144 -67q97 0 197 102q-37 90 -65 242q-19 142 -33 239z" />
    <glyph glyph-name="quotesingle" unicode="'" horiz-adv-x="258" 
d="M562 1381q14 0 25 -8q17 -13 17 -35q0 -43 -119 -271q-42 -80 -64 -98q-16 -13 -31 -13q-35 0 -35 47q0 29 36 98q87 178 94 197q32 83 77 83z" />
    <glyph glyph-name="parenleft" unicode="(" horiz-adv-x="732" 
d="M958 1466q15 0 25 -12q9 -10 9 -22q0 -21 -27 -54q-6 -8 -68 -73q-69 -73 -182 -224.5t-172 -250.5q-275 -460 -372 -1165q-10 -65 -13 -75q-9 -28 -36 -28q-40 0 -40 57q0 62 36 318q93 661 499 1177q142 180 261 297q56 55 80 55z" />
    <glyph glyph-name="parenright" unicode=")" horiz-adv-x="732" 
d="M625 1466q39 0 39 -57q0 -62 -36 -318q-92 -658 -499 -1177q-132 -168 -261 -297q-55 -55 -82 -55q-13 0 -23 12q-9 10 -9 22q0 21 27 54q6 8 68 73q47 47 184 228q272 348 410 794q86 282 132 618q8 60 13 75q8 28 37 28z" />
    <glyph glyph-name="asterisk" unicode="*" 
d="M663 1121q104 14 139 31q48 24 66 24q10 0 21 -11q11 -10 11 -20q0 -43 -76 -75q-52 -22 -101 -22q-15 0 -45 4q21 -54 40 -80q11 -13 60 -62q21 -21 21 -42q0 -9 -5 -17q-11 -18 -29 -18q-46 0 -104 73q-29 37 -57 106q-55 -34 -89 -90q-23 -40 -39 -60q-17 -24 -40 -24
q-11 0 -22 11q-14 14 -14 31q0 45 53 115q28 36 86 85q-60 55 -96 75q-33 18 -48 30q-19 14 -19 37q0 18 16 30q11 8 25 8q61 0 168 -107q17 61 20 97q4 68 15 84q14 22 35 22q25 0 40 -23q10 -15 10 -33q0 -50 -42 -179z" />
    <glyph glyph-name="plus" unicode="+" 
d="M300 608q51 114 91 189q39 74 91 74q22 0 22 -24q0 -23 -45 -118q-20 -42 -57 -123q93 -2 113 -3q66 0 88 -12q18 -9 18 -37q0 -50 -43 -50q-11 0 -36 3q-19 3 -146 3l-36 1q-33 -78 -64 -165q-28 -79 -46 -106q-21 -32 -47 -32q-15 0 -25 9q-13 11 -13 27q0 42 92 265
q-87 -4 -114 -9t-43 -5q-25 0 -40 22q-8 12 -8 27q0 45 52 56q27 5 169 8h27z" />
    <glyph glyph-name="comma" unicode="," horiz-adv-x="423" 
d="M34 147q47 0 47 -59q0 -91 -101 -238q-41 -60 -97 -110q-36 -33 -58 -33q-21 0 -34 19q-9 12 -9 28q0 22 43 61q122 117 143 274q5 29 27 45q20 13 39 13z" />
    <glyph glyph-name="hyphen" unicode="-" horiz-adv-x="497" 
d="M152 489q31 0 73 -2q86 -3 109 -3q58 0 77 -13q18 -12 18 -44q0 -30 -17 -47q-10 -9 -24 -9q-10 0 -32 2q-37 4 -196 4q-97 0 -145 -11q-23 -5 -35 -5q-27 0 -41 26q-7 13 -7 30q0 52 48 63q36 9 172 9z" />
    <glyph glyph-name="period" unicode="." horiz-adv-x="423" 
d="M36 151q22 0 37 -20q10 -13 10 -33q0 -47 -26 -99q-27 -55 -71 -55q-46 0 -46 52t32 106q29 49 64 49z" />
    <glyph glyph-name="slash" unicode="/" horiz-adv-x="688" 
d="M1032 1465q13 0 24 -13q8 -11 8 -23q0 -23 -34 -60q-14 -18 -26 -32t-52 -59q-130 -143 -491 -608q-238 -306 -389 -509q-143 -203 -282 -398l-109 -155q-58 -86 -65 -99q-20 -34 -44 -34q-32 0 -32 28q0 33 77 148q238 358 689 945q494 641 624 780q52 55 62 66
q24 23 40 23z" />
    <glyph glyph-name="zero" unicode="0" 
d="M571 970q54 -21 80.5 -67.5t26.5 -118.5q0 -223 -174 -474q-189 -273 -362 -273q-86 0 -129 89q-28 58 -28 140q0 198 145 418q75 113 203 233q134 124 193 124q45 0 45 -71zM441 898q-117 -96 -207 -234q-129 -198 -129 -383q0 -55 15 -86q25 -48 69 -48q69 0 165 106
q107 118 168 288q47 129 47 218q0 62 -38 106q-26 31 -69 33h-21z" />
    <glyph glyph-name="one" unicode="1" 
d="M489 876q-70 -53 -140 -90q-95 -51 -125 -51q-32 0 -32 51q0 18 8 31q8 12 38 23q90 38 262 146q78 49 110 49q21 0 38 -21q11 -14 11 -30q0 -25 -39 -85q-289 -468 -400 -735q-27 -65 -39 -81q-19 -27 -38 -27t-36 23q-10 13 -10 28q0 54 154 356q144 284 238 413z" />
    <glyph glyph-name="two" unicode="2" 
d="M11 157q168 53 309 53q55 0 89 -23q30 -20 30 -49q0 -19 -14 -34t-32 -15q-6 0 -18 3q-52 14 -94 14q-37 0 -91 -7q-19 -3 -139 -36q-108 -29 -128 -29q-28 0 -49 27q-19 25 -19 52q0 30 52 81q98 96 189 173q86 72 213 166q145 107 200 156q82 72 82 144q0 40 -26 63
q-23 20 -58 20q-90 0 -212 -101q-56 -46 -70 -46q-10 0 -23 12q-14 12 -14 29q0 36 87 102q140 106 267 106q73 0 122 -47q47 -45 47 -109q0 -112 -114 -222q-49 -48 -180 -144q-315 -230 -406 -339z" />
    <glyph glyph-name="three" unicode="3" 
d="M461 647q50 -21 71 -47q31 -37 31 -103q0 -163 -137 -313t-282 -150q-89 0 -145 74q-40 53 -40 118q0 106 82 106q49 0 49 -37q0 -8 -2 -21q-3 -17 -3 -34q0 -47 23 -72q26 -27 61 -27q85 0 183 119q93 114 93 217q0 52 -25 82q-27 32 -75 32q-19 0 -38 -6q-23 -7 -35 -7
q-29 0 -29 39q0 34 23 56q13 13 55 24q83 21 141 58q37 24 59 64q11 21 11 44q0 29 -15.5 43t-47.5 14q-54 0 -112 -28q-15 -7 -71 -41q-15 -10 -33 -10q-34 0 -34 37q0 33 50 69q117 83 229 83q67 0 113 -41q49 -44 49 -105q0 -81 -70 -152q-38 -40 -129 -85z" />
    <glyph glyph-name="four" unicode="4" 
d="M432 463q-11 -25 -59 -125q-79 -191 -96 -250q-9 -33 -22 -47q-12 -13 -36 -13q-25 0 -40 18q-14 16 -14 37q0 75 134 364q-146 -16 -229 -51q-27 -11 -44 -11q-40 0 -40 63q0 37 29 72q56 65 189 197q164 161 297 262q115 87 166 87q23 0 42 -19q15 -16 15 -35
q0 -24 -30 -74q-5 -9 -66 -107q-77 -125 -144 -262q70 4 93 4q59 0 59 -44q0 -39 -32 -56q-14 -7 -85 -7q-21 0 -87 -3zM355 555q109 212 207 355q-105 -59 -253 -204q-107 -106 -172 -185q145 30 218 34z" />
    <glyph glyph-name="five" unicode="5" 
d="M459 912q-170 -147 -217 -252q99 40 169 40q81 0 127 -48q43 -45 43 -117q0 -165 -157 -333q-155 -167 -305 -167q-87 0 -134 80q-31 54 -31 122q0 69 30 113q25 37 64 37q36 0 36 -27q0 -6 -6 -23q-10 -29 -10 -78q0 -43 20 -75q27 -45 73 -45q90 0 188 113
q108 124 108 247q0 51 -23 76.5t-70 25.5q-46 0 -112 -24q-15 -5 -73 -36q-12 -7 -22 -7q-19 0 -38 24q-20 27 -20 49q0 42 87 159q55 75 136 152q-22 30 -22 46q0 23 31 33q15 5 113 18q111 15 180 15q66 0 95 -9q36 -10 36 -48q0 -46 -46 -46q-10 0 -40 2q-10 1 -23 1
q-48 0 -94.5 -4.5t-92.5 -13.5z" />
    <glyph glyph-name="six" unicode="6" 
d="M220 616q150 55 218 55q82 0 122 -47q35 -41 35 -107q0 -170 -152 -333q-140 -151 -285 -151q-92 0 -149 80q-44 62 -44 144q0 178 138 367q119 164 340 302q66 42 98 58q30 15 55 15q38 0 38 -33q0 -30 -40 -52q-208 -111 -374 -298zM138 493q-62 -101 -62 -199
q0 -65 30 -112q31 -48 80 -48q70 0 143 66t119 178q29 70 29 122q0 38 -23 61q-25 26 -66 26q-67 0 -164 -45q-26 -11 -59 -31q-25 -15 -27 -18z" />
    <glyph glyph-name="seven" unicode="7" 
d="M617 918q-269 -59 -378 -59q-73 0 -73 48q0 24 16 41t37 17q8 0 28 -2q13 -2 30 -2q61 0 164 16q129 21 191 37q35 9 58 9q54 0 54 -58q0 -39 -46 -88q-344 -368 -539 -726q-47 -86 -60 -102q-24 -29 -51 -29q-15 0 -26 11q-14 13 -14 29q0 51 97 210q128 209 309 425
q108 130 203 223z" />
    <glyph glyph-name="eight" unicode="8" 
d="M318 665q-44 43 -62 70q-27 42 -27 89q0 104 105 175q90 61 196 61q77 0 123 -48q40 -42 40 -101q0 -89 -86 -164q-46 -41 -129 -95q52 -52 78 -102.5t26 -98.5q0 -94 -63 -186q-68 -99 -173 -160q-107 -62 -215 -62q-94 0 -155 68q-45 52 -45 113q0 163 200 316
q105 81 187 125zM414 725q60 33 102 74q54 53 54 100q0 30 -19 50q-21 24 -55 24q-58 0 -108 -41q-43 -35 -43 -81q0 -33 37 -83zM386 597q-120 -61 -203 -138q-116 -108 -116 -208q0 -58 36 -84q37 -25 77 -25q56 0 117.5 34.5t104.5 90.5q64 82 64 171q0 62 -38 115
q-9 12 -27 30q-14 14 -15 14z" />
    <glyph glyph-name="nine" unicode="9" 
d="M458 488q-139 -68 -219 -68q-79 0 -123 66q-33 47 -33 113q0 172 153 330q139 144 286 144q84 0 135 -59q44 -51 44 -130q0 -173 -124 -391q-67 -118 -210 -276q-160 -178 -210 -178q-14 0 -26 12q-10 11 -10 24q0 24 41 58q186 156 296 355zM517 606q70 144 70 238
q0 68 -24.5 102t-73.5 34q-102 0 -201 -119q-97 -117 -97 -233q0 -52 24.5 -78t73.5 -26q66 0 155 40q68 32 73 42z" />
    <glyph glyph-name="colon" unicode=":" horiz-adv-x="423" 
d="M36 151q22 0 37 -20q10 -13 10 -33q0 -47 -26 -99q-27 -55 -71 -55q-46 0 -46 52t32 106q29 49 64 49zM234 649q22 0 37 -20q10 -13 10 -33q0 -47 -26 -98q-28 -56 -71 -56q-46 0 -46 52t32 106q28 49 64 49z" />
    <glyph glyph-name="semicolon" unicode=";" horiz-adv-x="423" 
d="M34 147q47 0 47 -59q0 -91 -101 -238q-41 -60 -97 -110q-36 -33 -58 -33q-21 0 -34 19q-9 12 -9 28q0 22 43 61q122 117 143 274q5 29 27 45q20 13 39 13zM236 649q22 0 37 -20q10 -13 10 -33q0 -47 -26 -98q-28 -56 -71 -56q-46 0 -46 52t32 106q28 49 64 49z" />
    <glyph glyph-name="less" unicode="&#x3c;" horiz-adv-x="1024" 
d="M1013 1198v-129l-792 -367l792 -385v-128l-942 455v121z" />
    <glyph glyph-name="equal" unicode="=" 
d="M313 718q36 0 90 -2q96 -3 126 -3q65 0 88 -12q18 -9 18 -37q0 -27 -18 -42q-10 -8 -25 -8q-11 0 -36 3q-41 4 -231 4q-113 0 -169 -11q-26 -5 -41 -5q-27 0 -42 22q-7 12 -7 27q0 45 52 56q42 8 195 8zM273 499q35 0 89 -2q97 -3 126 -3q65 0 88 -12q18 -9 18 -37
q0 -27 -18 -42q-10 -8 -25 -8q-11 0 -36 3q-41 4 -231 4q-113 0 -169 -11q-26 -5 -41 -5q-27 0 -41 22q-8 12 -8 27q0 45 52 56q42 8 196 8z" />
    <glyph glyph-name="greater" unicode="&#x3e;" horiz-adv-x="1024" 
d="M73 1198l937 -458v-117l-937 -434v128l788 366l-788 386v129z" />
    <glyph glyph-name="question" unicode="?" horiz-adv-x="750" 
d="M783 1253q-140 0 -319 -183q-60 -61 -90 -61q-13 0 -24 11q-11 12 -11 26q0 64 120 161q161 130 320 130q80 0 140 -48q66 -52 66 -136q0 -94 -95 -197q-72 -79 -226 -191q-120 -87 -155 -121q-75 -71 -116 -145q-22 -47 -43 -89q-24 -49 -67 -49q-45 0 -45 40
q0 47 79 172q59 93 178 188q72 57 153 113q135 94 171 132q79 79 79 152q0 48 -28.5 71.5t-86.5 23.5zM236 151q22 0 37 -20q10 -13 10 -33q0 -47 -26 -99q-27 -55 -71 -55q-46 0 -46 52t32 106q29 49 64 49z" />
    <glyph glyph-name="at" unicode="@" horiz-adv-x="1397" 
d="M1047 921q15 -25 15 -43q0 -20 -34 -78q-27 -47 -52 -116q-30 -84 -30 -138t30 -82q25 -24 56 -24q47 0 105 43q73 55 129 179q59 132 59 267q0 139 -81 244q-90 116 -235 116q-202 0 -395 -148q-169 -129 -256 -323q-69 -153 -69 -313q0 -126 51 -235q86 -186 290 -186
q97 0 237 61q51 22 136 76q21 13 41 13t33 -16q8 -11 8 -24q0 -35 -54 -76q-80 -62 -233 -108q-97 -29 -176 -29q-114 0 -212 59q-106 64 -161 171q-65 129 -65 280q0 212 106 417q100 194 277 320q216 155 452 155q126 0 226 -75q78 -58 122 -155q50 -111 50 -236
q0 -185 -91 -345q-64 -112 -152 -170q-79 -52 -158 -52q-75 0 -129 66q-32 38 -32 90q0 20 8 58q-30 -54 -67 -94q-64 -70 -117 -70q-51 0 -82 43q-30 40 -30 103q0 78 49 187q60 135 162 232q99 93 191 93q51 0 79 -36q19 -24 19 -51q0 -25 -20 -50zM983 913
q-10 18 -22.5 26.5t-27.5 8.5q-69 0 -150 -113q-111 -156 -111 -267q0 -25 13 -40q9 -11 22 -11q37 0 80 59q78 104 146 260q22 50 50 77z" />
    <glyph glyph-name="A" unicode="A" horiz-adv-x="911" 
d="M649 630q-227 -45 -380 -106q-92 -135 -202 -324l-53 -93q-14 -25 -43 -72q-32 -55 -67 -55q-19 0 -32 15q-13 13 -13 29q0 28 75 159q41 71 124 201q32 50 51 82q-60 -17 -110 -39q-24 -11 -40 -11q-20 0 -31 18q-8 11 -8 26q0 34 24 48q39 24 140 55q75 24 119 44
q21 26 110 153q38 55 216 260q128 150 264 279q79 76 121 76q26 0 45 -21q16 -19 16 -42q0 -28 -28 -98q-48 -123 -92 -263q-38 -124 -51 -190q18 0 24 1q29 1 48 1q58 0 58 -44q0 -19 -12.5 -37.5t-28.5 -22.5q-6 -2 -33 -2q-57 0 -85 -7q-24 -71 -76 -363
q-27 -194 -26 -238q0 -72 -43 -72q-34 0 -53 35q-14 24 -14 65q0 138 49 372q25 118 37 181zM677 738q9 29 46 155q9 33 46 131q37 101 59 162q-65 -43 -132 -114q-236 -254 -333 -415q37 9 159 45q35 10 155 36z" />
    <glyph glyph-name="B" unicode="B" horiz-adv-x="916" 
d="M572 783q94 -34 142 -85q82 -86 82 -200q0 -137 -83 -260q-78 -113 -199 -179q-122 -66 -251 -66q-100 0 -216 51q-9 -27 -11 -36q-13 -47 -41 -47q-29 0 -50 33q-15 23 -15 47q0 35 44 147q90 230 158 361q42 81 174 308q58 98 167 267q26 40 50 81q-50 -16 -125 -52
q-64 -30 -75 -30q-15 0 -26 15t-11 35q0 31 21 45q38 27 136 67q205 83 331 83q106 0 172 -53t66 -133q0 -165 -191 -285q-115 -72 -249 -114zM422 845q170 31 320 121q174 105 174 209q0 48 -46 75q-30 18 -84 18q-35 0 -75 -7.5t-85 -22.5q17 -13 17 -32q0 -26 -33 -70
q-11 -15 -40 -59q-11 -19 -67 -101q-55 -81 -81 -131zM75 129q34 -20 50 -26q43 -17 114 -17q213 0 341 169q109 143 109 281q0 94 -83 149q-49 32 -115 32q-25 0 -74 -11q-9 -2 -18 -2q-24 0 -40 35q-80 -122 -180 -341q-51 -112 -104 -269z" />
    <glyph glyph-name="C" unicode="C" horiz-adv-x="856" 
d="M843 1364q67 0 103 -48q29 -38 29 -92q0 -97 -65 -221q-57 -107 -142 -192q-56 -55 -88 -55q-21 0 -39 21q-13 15 -13 34q0 35 61 80q86 64 137 140q75 110 75 186q0 31 -13.5 46t-40.5 15q-55 0 -156 -80q-115 -90 -243 -245q-163 -197 -248 -388q-88 -198 -88 -338
q0 -67 39 -114q43 -53 105 -53q108 0 272 168q49 51 119 148q46 62 59 88q15 29 35 29q22 0 22 -21q0 -45 -112 -202q-93 -131 -205 -214q-126 -93 -238 -93q-117 0 -181 105q-41 67 -41 153q0 216 204 545q174 280 367 451q167 147 286 147z" />
    <glyph glyph-name="D" unicode="D" horiz-adv-x="944" 
d="M468 1139q-27 -15 -51 -34q-43 -36 -64 -36q-16 0 -29 13q-14 14 -14 31q0 37 97 110q149 112 328 112q139 0 221 -91q74 -82 74 -198q0 -192 -142 -451q-166 -303 -432 -502q-197 -148 -350 -148q-60 0 -91 36q-25 30 -25 64q0 51 66 230q100 268 248 559q22 44 164 305
zM562 1185q30 -15 30 -33q0 -13 -38 -82q-187 -335 -316 -642q-117 -276 -117 -339q0 -40 38 -40q64 0 172 69q135 85 297 285q147 180 232 383q66 156 66 277q0 86 -42 128.5t-126 42.5q-85 0 -196 -49z" />
    <glyph glyph-name="E" unicode="E" horiz-adv-x="807" 
d="M427 818l40 7q221 42 308 42q63 0 63 -51q0 -32 -25 -43q-17 -8 -58 -10q-259 -16 -394 -61q-53 -79 -155 -295q-59 -126 -92 -233q23 8 45 16q148 50 218 65q93 18 175 18q54 0 80 -13q23 -11 23 -42t-28 -41q-13 -4 -62 -5q-265 -14 -472 -130q-27 -15 -46 -15
q-28 0 -50 29q-19 24 -19 49t63 184q95 241 259 528q49 87 186 293q31 48 60 94q-40 10 -40 53q0 32 32 47q52 24 200 47q221 34 375 34q87 0 87 -46q0 -32 -30 -54q-15 -11 -48 -11q-2 0 -23 1h-33q-72 0 -208 -15q-118 -13 -203 -38q10 -15 10 -24q0 -17 -47 -78l-48 -74
q-103 -152 -143 -228z" />
    <glyph glyph-name="F" unicode="F" horiz-adv-x="806" 
d="M684 1216q-52 -58 -138 -192q-87 -136 -125 -210q216 43 299 43q40 0 61 -8q24 -8 24 -37q0 -62 -70 -62h-16q-30 1 -44 1q-99 0 -329 -65q-146 -251 -257 -600q-15 -53 -47 -53q-28 0 -47 31q-15 23 -15 46q0 26 55 176q91 247 260 530q107 177 235 375q-34 5 -34 38
q0 49 95 75q132 37 257 57q142 23 216 23q117 0 117 -59q0 -30 -27 -49q-11 -8 -25 -8q-12 0 -34 3q-34 5 -59 5q-54 0 -182 -21q-92 -14 -170 -39z" />
    <glyph glyph-name="G" unicode="G" horiz-adv-x="818" 
d="M448 230q-68 -47 -109 -70q-94 -54 -163 -54q-81 0 -134 79q-38 57 -38 131q0 206 180 480q167 253 387 436q180 150 309 150q65 0 106 -55q31 -42 31 -99q0 -174 -170 -361q-130 -143 -197 -143q-15 0 -30 12q-16 14 -16 33q0 25 44 61q113 91 184 186q111 147 111 233
q0 23 -17 37q-16 13 -39 13q-53 0 -142 -62q-186 -131 -367 -367q-117 -153 -195 -316q-68 -143 -68 -234q0 -36 23 -68q31 -43 81 -43q71 0 175 75q130 94 186 151q47 48 71 48q17 0 28 -13q14 -17 14 -42q0 -28 -34 -74q-35 -46 -108 -171q-84 -143 -155 -310
q-63 -147 -76 -199q-11 -44 -25 -63q-15 -20 -46 -20q-26 0 -40 18q-12 16 -12 38q0 85 99 294q16 33 101 192q17 32 51 97z" />
    <glyph glyph-name="H" unicode="H" horiz-adv-x="941" 
d="M697 693q-206 -42 -427 -130q-8 -16 -16 -33q-138 -265 -186 -502q-10 -56 -45 -56q-26 0 -46 26q-16 20 -16 43q0 28 25 116.5t52 155.5q10 25 63 146q13 29 26 61q-21 -8 -58 -24q-16 -7 -29 -7q-31 0 -31 47q0 31 26 47q20 13 71 31q54 20 85 33q20 35 76 144
q10 20 67 114q163 274 212 390q45 105 56 119q20 26 48 26q47 0 47 -46q0 -105 -286 -567q-47 -76 -69 -132l50 14q204 59 371 103q115 212 282 470q29 46 34 57q24 43 51 43q23 0 38 -19q12 -16 12 -35q0 -36 -39 -103q-9 -16 -82 -128q-128 -198 -161 -265q29 3 44 3
q79 0 79 -39q0 -24 -25 -47q-19 -18 -42 -18h-39q-24 0 -72 -9q-212 -378 -277 -663q-16 -64 -50 -64q-26 0 -49 33q-15 23 -15 49q0 96 245 616z" />
    <glyph glyph-name="I" unicode="I" horiz-adv-x="462" 
d="M698 1353q16 0 31 -17q13 -15 13 -33q0 -25 -27 -68q-13 -21 -98 -139q-398 -548 -512 -989q-13 -71 -54 -71q-22 0 -39 21q-16 19 -16 43q0 50 48 185q110 312 394 746q116 178 189 267q47 55 71 55z" />
    <glyph glyph-name="J" unicode="J" horiz-adv-x="870" 
d="M1018 1266q-176 -456 -331 -733q-155 -275 -302 -395q-121 -97 -227 -97q-88 0 -137 80q-38 62 -38 137q0 168 97 351q61 114 157 203q46 43 67 43q14 0 26 -15q8 -10 8 -23q0 -15 -54 -85q-184 -241 -184 -437q0 -60 26 -105q29 -49 82 -49q105 0 229 183
q158 232 333 617q83 184 128 309q-192 -37 -267 -67q-33 -13 -53 -13q-21 0 -37 20q-10 13 -10 31q0 42 57 63q242 90 522 90q80 0 111 -14q30 -14 30 -43q0 -53 -70 -53q-20 0 -54 2q-34 1 -57 1q-17 0 -52 -1z" />
    <glyph glyph-name="K" unicode="K" horiz-adv-x="947" 
d="M523 940q43 23 173 104q38 24 207 119q69 38 176 87q65 30 89 30q14 0 27 -11q15 -15 15 -38q0 -28 -25 -45q-12 -9 -62 -25q-321 -125 -533 -305q-29 -108 -45 -211q-33 -220 -33 -371q0 -54 13.5 -81.5t40.5 -27.5q53 0 211 223q30 42 48 42q23 0 23 -28
q0 -40 -87 -166q-125 -184 -228 -184q-86 0 -114 92q-18 57 -18 144q0 174 44 371q44 198 53 246q-56 -103 -209 -351q-183 -316 -219 -503q-14 -61 -56 -61q-28 0 -43 26q-8 15 -8 38q0 78 81 258q46 101 126 250q30 55 134 218q228 361 287 526q22 59 32 73q18 23 44 23
q14 0 25 -9q15 -13 15 -34q0 -87 -184 -419z" />
    <glyph glyph-name="L" unicode="L" horiz-adv-x="633" 
d="M57 162q27 8 40 12q231 71 331 71q75 0 75 -56q0 -22 -17 -39t-38 -17q-10 0 -29 3q-16 3 -26 3q-59 0 -155 -27q-35 -11 -135 -56q-67 -30 -110 -30q-31 0 -51 29q-19 27 -19 57q0 37 41 125q125 272 268 488q205 310 318 455q31 39 62 79q49 66 85 66q18 0 32 -14
q13 -14 13 -29q0 -22 -34 -68q-7 -9 -83 -109q-142 -187 -211.5 -286t-148.5 -229q-155 -255 -208 -428z" />
    <glyph glyph-name="M" unicode="M" horiz-adv-x="1163" 
d="M491 390q32 47 148 226q99 153 316 441q126 167 228 280q61 68 108 68q27 0 45 -19q16 -15 16 -38q0 -34 -41 -107q-8 -15 -82 -145q-132 -234 -179 -334q-129 -274 -189 -467q-35 -115 -35 -169q0 -12 2 -25q5 -39 5 -46q0 -29 -22 -54q-19 -23 -43 -23q-28 0 -46 33
q-15 25 -15 70q0 283 472 1112q-247 -264 -547 -756q-66 -107 -109 -145q-42 -37 -80 -37t-56 33q-12 22 -12 51q0 250 297 787q-101 -103 -194 -239q-169 -251 -302 -515q-63 -127 -153 -339q-45 -108 -104 -108q-15 0 -25 13q-8 9 -8 22q0 19 37 104q79 187 121 269
q215 419 509 788q123 154 170 200q49 47 81 47q20 0 39 -18q23 -21 23 -48q0 -30 -42 -99q-120 -196 -221 -440q-87 -220 -112 -373z" />
    <glyph glyph-name="N" unicode="N" horiz-adv-x="1020" 
d="M583 226q83 247 196 471q89 175 239 439q111 195 146 233t72 38q32 0 32 -28q0 -15 -14 -39q-13 -23 -83 -135q-231 -376 -337 -618q-96 -217 -165 -425q-25 -75 -55 -111q-44 -54 -89 -54q-41 0 -52 59q-5 24 -5 92q0 239 47 531q42 256 85 411q-96 -106 -287 -444
q-151 -268 -226 -500q-31 -96 -45 -119q-26 -44 -67 -44q-17 0 -29 14q-10 12 -10 24q0 38 65 201q84 212 279 542q116 197 276 419q76 106 113 137q34 28 64 28q13 0 23 -8q14 -11 14 -27q0 -20 -10 -45q-48 -123 -99 -341q-81 -351 -81 -597q0 -34 3 -104z" />
    <glyph glyph-name="O" unicode="O" horiz-adv-x="913" 
d="M623 1239q-74 -13 -176 -69q-22 -12 -35 -12q-14 0 -28 14q-14 15 -14 36q0 24 25 42q61 44 151 74q109 37 204 37q121 0 197 -83q69 -74 69 -183q0 -180 -146 -437q-158 -275 -385 -494q-192 -185 -330 -185q-81 0 -131 74q-38 58 -38 134q0 187 130 434
q174 331 507 618zM675 1250q17 -20 17 -35q0 -13 -54 -73q-220 -236 -326 -393q-110 -162 -168 -325q-41 -118 -41 -209q0 -45 18 -75q23 -37 67 -37q93 0 249 156q198 198 323 411q141 242 141 413q0 80 -52 131q-40 39 -109 39z" />
    <glyph glyph-name="P" unicode="P" horiz-adv-x="901" 
d="M337 556l-14 -30q-104 -216 -139 -308q-54 -144 -61 -168q-21 -67 -55 -67q-24 0 -41 22q-15 19 -15 41q0 86 221 543q-40 30 -40 60q0 23 20 40q17 14 37 14q14 0 37 -7q163 310 191 395q-25 -14 -64 -40q-22 -14 -39 -14q-19 0 -31 19q-8 13 -8 27q0 47 81 101
q65 43 121 72q9 24 11 33q10 38 21 51t34 13q47 0 47 -52q69 20 122 30t90 10q97 0 164 -74q63 -70 63 -157q0 -151 -126 -302q-108 -128 -268 -200q-138 -61 -276 -61q-33 0 -83 9zM617 1166q-33 -99 -108 -254q-92 -188 -119 -246q55 -10 77 -10q114 0 266 92
q147 90 230 223q51 81 51 144q0 57 -38.5 85.5t-116.5 28.5q-59 0 -119.5 -15.5t-122.5 -47.5z" />
    <glyph glyph-name="Q" unicode="Q" horiz-adv-x="911" 
d="M469 147q8 -30 11 -39q39 -139 52 -167q36 -78 81 -116q40 -34 99 -34q53 0 114 42q18 12 27 12q13 0 25 -16q8 -10 8 -21q0 -37 -51 -78q-67 -53 -157 -53q-145 0 -231 171q-5 10 -77 216q-51 -32 -76 -46q-73 -39 -131 -39q-82 0 -135 72q-40 54 -40 133q0 191 130 437
q156 297 494 614q-61 -13 -164 -64q-24 -14 -36 -14q-11 0 -29 15q-17 14 -17 33q0 24 34 47q58 40 150 72q94 33 187 33q135 0 206 -78q71 -77 71 -185q0 -170 -135 -417q-112 -203 -264 -375q-17 -19 -146 -155zM439 263q113 104 228 264q103 144 168 297q64 152 64 260
q0 78 -50 129q-41 40 -104 40q-14 0 -31 -1t-38 -4q13 -21 13 -34q0 -19 -53 -72q-404 -423 -498 -748q42 20 75 29.5t58 9.5q58 0 100 -42.5t68 -127.5zM340 175q-12 81 -41 121.5t-74 40.5q-23 0 -51.5 -12t-62.5 -36q-5 -43 -5 -67q0 -49 16 -77q23 -41 64 -41
q38 0 76.5 18t77.5 53z" />
    <glyph glyph-name="R" unicode="R" horiz-adv-x="902" 
d="M281 518q-131 -254 -182 -406q-30 -88 -41 -98q-14 -14 -43 -14q-24 0 -37 16q-12 15 -12 31q0 47 90 250q64 146 170 332q-14 46 -14 70q0 34 26 54q13 10 28 10q14 0 36 -10q15 26 111 191q86 167 95 196q-27 -12 -43 -21q-17 -9 -27 -9q-13 0 -22 14q-7 11 -7 25
q0 50 67 88q47 27 92 45q13 47 21 62q14 27 45 27q34 0 59 -38q47 14 89.5 21t80.5 7q116 0 176 -66q57 -63 57 -153q0 -147 -115 -278q-108 -122 -288 -187q-138 -50 -272 -50q-23 0 -70 3q16 -61 43 -122q47 -99 134 -284q25 -49 82 -140q15 -24 15 -44q0 -19 -22 -36
q-23 -16 -39 -16q-25 0 -53 53q-14 25 -35 62q-77 127 -195 415zM403 734q38 -2 57 -2q207 0 387 145q79 64 128 148q31 52 31 110q0 59 -37.5 88.5t-112.5 29.5q-68 0 -137 -26q-27 -10 -77 -33q-35 -80 -114 -231.5t-125 -228.5z" />
    <glyph glyph-name="S" unicode="S" horiz-adv-x="806" 
d="M152 464q54 0 54 -44q0 -33 -50 -50q-86 -31 -86 -111q0 -64 50 -100q43 -30 109 -30q132 0 231 77q62 49 62 124q0 46 -18 83q-19 38 -58 96q-60 90 -101 164q-46 82 -46 161q0 187 185 350q98 85 216 138q98 43 189 43q59 0 100 -31q50 -37 50 -101q0 -100 -108 -216
q-102 -109 -238 -178q-68 -34 -103 -34q-23 0 -41 19q-12 13 -12 29q0 37 66 60q121 43 214 121q120 100 120 175q0 29 -24 47q-19 14 -45 14q-69 0 -173 -53q-140 -71 -220 -183q-70 -97 -70 -189q0 -67 37 -138q31 -57 79 -129q46 -69 78 -128q37 -70 37 -131
q0 -118 -135 -209q-115 -76 -260 -76q-143 0 -224 79q-61 60 -61 138q0 87 58 146q35 36 83 54q33 13 55 13z" />
    <glyph glyph-name="T" unicode="T" horiz-adv-x="924" 
d="M736 1216q-200 -31 -371 -79q-36 -13 -56 -13q-23 0 -39 21q-10 12 -10 28q0 43 62 63q166 50 391 92q282 51 542 51q88 0 118 -11q28 -10 28 -38q0 -47 -69 -55q-60 -6 -181 -9q-241 -8 -330 -30q25 -10 25 -31q0 -22 -32 -69q-190 -278 -363 -631q-132 -268 -193 -476
q-14 -63 -48 -63q-31 0 -52 32q-14 21 -14 44q0 92 175 448q112 229 207 386q38 64 183 297z" />
    <glyph glyph-name="U" unicode="U" horiz-adv-x="1065" 
d="M928 873q-90 -106 -375 -492q-119 -161 -223 -271q-117 -123 -196 -123q-54 0 -88 59q-23 41 -23 98q0 182 160 498q156 305 407 594q104 120 145 120q13 0 26 -11q18 -15 18 -37q0 -29 -48 -77q-11 -11 -156 -181q-186 -218 -327 -508q-60 -124 -94 -241
q-24 -80 -24 -127q0 -20 9 -36q12 -19 33 -19q39 0 112 83q184 211 601 757q105 138 237 288q36 41 57 59q21 19 49 19q19 0 33 -15q13 -13 13 -30q0 -25 -45 -92q-228 -342 -358 -651q-129 -306 -135 -454q-2 -53 -7 -65q-8 -18 -29 -18q-31 0 -53 27q-16 21 -16 50
q0 67 35 200q43 165 140 366q6 11 122 230z" />
    <glyph glyph-name="V" unicode="V" horiz-adv-x="850" 
d="M230 68q264 481 505 836q112 165 257 349q57 73 99 73q17 0 29 -14q8 -10 8 -21q0 -26 -51 -89q-331 -414 -749 -1163q-38 -68 -57 -90q-20 -25 -50 -25q-102 0 -102 187q0 178 90 552q74 309 181 554q40 92 52 109q21 29 56 29q23 0 36 -14q12 -11 12 -27q0 -24 -12 -53
l-38 -90q-107 -255 -177 -513q-91 -333 -91 -533z" />
    <glyph glyph-name="W" unicode="W" horiz-adv-x="1138" 
d="M171 116q58 76 103 146q26 41 137 224l85 139q94 154 125 197q51 73 101 73q36 0 36 -28q0 -19 -14 -48q-10 -20 -56 -139q-46 -121 -71 -270q-18 -106 -18 -181q0 -22 2.5 -48.5t7.5 -58.5q40 50 88 144q46 94 142 299q91 196 213 407q100 174 239 352q65 84 104 84
q17 0 31 -17q10 -12 10 -27q0 -20 -62 -99q-122 -155 -233 -343q-127 -218 -318 -620q-85 -180 -130 -256q-47 -78 -108 -78q-52 0 -78 45.5t-26 135.5q0 145 48 359q-47 -59 -110 -167q-47 -80 -91 -154q-64 -107 -85 -144q-32 -57 -66 -90q-25 -24 -59 -24q-41 0 -59 35
q-13 24 -13 59q0 238 250 853q122 301 142 369q18 66 36 84q24 26 56 26q44 0 44 -42q0 -51 -38 -155q-43 -118 -138 -334q-65 -149 -92 -223q-122 -368 -135 -485z" />
    <glyph glyph-name="X" unicode="X" horiz-adv-x="879" 
d="M451 771v26q0 91 -22 305q-15 147 -39 212q-14 37 -14 44q0 19 18 34q16 13 36 13q35 0 51 -40q30 -76 49 -245q12 -103 26 -239q233 230 360 337q175 148 207 148q19 0 32 -20q8 -14 8 -30q0 -40 -49 -83q-27 -22 -159 -132q-162 -132 -391 -367q6 -519 105 -765
q9 -23 9 -41q0 -21 -17 -39q-18 -19 -44 -19q-40 0 -61 53q-37 99 -62 323q-23 204 -31 384q-350 -361 -514 -596q-38 -59 -68 -59q-20 0 -35 20q-11 14 -11 28q0 35 63 114q280 346 553 634z" />
    <glyph glyph-name="Y" unicode="Y" horiz-adv-x="844" 
d="M633 730q-79 -77 -192 -178q-64 -57 -114 -92q-52 -38 -109 -38t-87 60q-16 32 -16 69q0 126 102 313q91 167 251 324q159 157 225 157q16 0 28 -12q11 -12 11 -29q0 -28 -20 -46q-16 -14 -47 -33q-56 -35 -139 -116q-132 -130 -210 -281q-86 -167 -86 -236q0 -15 9 -27
q12 -17 32 -17q38 0 130 73q110 85 178 159q198 214 297 347q95 129 160 206q55 65 85 65q20 0 34 -20q11 -16 11 -37q0 -35 -38 -84q-271 -356 -359 -485q-133 -198 -231 -411q-113 -242 -137 -323q-23 -75 -43 -95t-45 -20q-47 0 -47 45q0 49 63 200q74 179 181 356
q91 150 123 206z" />
    <glyph glyph-name="Z" unicode="Z" horiz-adv-x="788" 
d="M-2 122q85 7 182 37q70 22 201 68q171 61 210 61q50 0 50 -52q0 -26 -20 -40q-15 -10 -61 -19q-114 -20 -297 -91q-190 -72 -268 -72q-55 0 -83 37q-23 30 -23 64q0 57 77 157q298 388 539 629q124 125 439 397q-53 -5 -207 -30q-135 -21 -230 -21q-67 0 -106 26
q-29 19 -29 43q0 21 18 37q18 14 31 14q8 0 39 -10q28 -10 70 -10q154 0 386 42q91 16 142 16q79 0 79 -55q0 -33 -43 -72q-10 -8 -100 -77q-315 -246 -654 -635q-203 -235 -263 -317q-45 -61 -79 -127z" />
    <glyph glyph-name="bracketleft" unicode="[" horiz-adv-x="869" 
d="M940 1367q-102 -140 -150 -216.5t-122 -212.5q-327 -616 -461 -1004q-78 -218 -93 -370q18 -4 35 -6t33 -2q34 0 98 10q28 5 46 5q21 0 36 -12.5t15 -29.5q0 -25 -35 -42q-40 -20 -173 -20q-63 0 -108 13q-28 9 -37.5 22t-9.5 43q0 120 99 408q151 437 473 1019
q184 331 261 429q35 45 80 56q36 9 124 9q99 0 126 -11q33 -12 33 -42q0 -24 -20 -36q-18 -12 -40 -12q-14 0 -70 4q-19 1 -43 1q-36 0 -97 -3z" />
    <glyph glyph-name="backslash" unicode="\" horiz-adv-x="688" 
d="M378 1457q22 0 22 -29q0 -12 9 -100l20 -155q46 -342 52 -382.5t34 -190.5q145 -751 212 -944q14 -44 18 -58l8 -32q8 -25 8 -31q0 -19 -18 -38q-21 -22 -39 -22q-19 0 -31 42q-2 4 -17 44q-43 116 -143 608q-138 676 -180 1060q-11 105 -11 143q0 33 10 53q15 32 46 32z
" />
    <glyph glyph-name="bracketright" unicode="]" horiz-adv-x="868" 
d="M-140 -434q102 141 150.5 217.5t121.5 212.5q327 615 461 1003q78 218 94 370q-19 4 -36 6t-32 2q-34 0 -98 -10q-29 -5 -46 -5q-21 0 -36 12.5t-15 29.5q0 25 35 42q40 20 173 20q63 0 108 -14q29 -8 39 -22q8 -12 8 -42q0 -121 -99 -408q-152 -438 -474 -1018
q-184 -332 -260 -429q-36 -45 -81 -56q-36 -9 -124 -9q-100 0 -126 10q-33 13 -33 42q0 24 20 37q18 11 41 11q15 0 69 -3q17 -1 42 -1q34 0 98 2z" />
    <glyph glyph-name="asciicircum" unicode="^" horiz-adv-x="1024" 
d="M265 772h-115l376 596h135l376 -596h-117l-328 514z" />
    <glyph glyph-name="underscore" unicode="_" horiz-adv-x="1024" 
d="M82 -149h1024v-97h-1024v97z" />
    <glyph glyph-name="grave" unicode="`" horiz-adv-x="1024" 
d="M641 1105q26 0 56 -43q10 -15 45 -61q35 -45 47 -58q37 -45 37 -69q0 -35 -31 -35q-24 0 -57 37q-138 155 -138 193q0 13 11 23q12 13 30 13z" />
    <glyph glyph-name="a" unicode="a" horiz-adv-x="530" 
d="M236 243q-33 -58 -65 -98q-63 -78 -125 -78q-54 0 -84 51q-19 33 -19 78q0 111 70 245q78 149 188 229q72 52 139 52q42 0 70 -26q24 -23 24 -52q0 -22 -17 -61q15 -21 15 -37q0 -21 -28 -69q-29 -49 -58 -130q-31 -86 -31 -138q0 -42 25 -69q7 -7 41 -23q25 -12 25 -42
q0 -19 -14 -31q-15 -13 -35 -13q-54 0 -93 48q-32 39 -32 98q0 20 4 66zM361 572q-12 22 -26 32.5t-30 10.5q-76 0 -165 -133q-98 -147 -98 -249q0 -25 9.5 -38t28.5 -13q48 0 112 102q36 56 89 165q35 71 51 94q8 12 29 29z" />
    <glyph glyph-name="b" unicode="b" horiz-adv-x="570" 
d="M229 603q85 72 153 72q42 0 69 -35q25 -31 25 -72q0 -78 -51 -189q-57 -123 -165 -229q-89 -88 -170 -88q-30 0 -54.5 11t-43.5 33q-8 -14 -10 -18q-17 -37 -23.5 -45t-20.5 -8q-18 0 -34 21q-11 14 -11 30q0 28 115 283q161 356 373 708q86 144 105 169q21 30 39 30
q22 0 39 -22q11 -14 11 -33q0 -21 -19 -53q-4 -7 -63 -103q-181 -280 -264 -462zM30 200q15 -20 30.5 -30t32.5 -10q87 0 184 151q45 68 71 135q23 60 23 89q0 20 -9 29.5t-28 9.5q-46 0 -111 -63q-65 -62 -128 -179q-30 -56 -52 -105z" />
    <glyph glyph-name="c" unicode="c" horiz-adv-x="560" 
d="M304 698q79 0 79 -83q0 -73 -57 -147q-44 -56 -77 -56q-28 0 -28 32q0 17 8 27q3 4 24 23q18 17 37 51q13 23 13 37q0 16 -18 16q-21 0 -64 -33q-68 -53 -136 -166q-70 -118 -70 -186q0 -22 13 -39q19 -26 51 -26q63 0 149 78q73 67 123 134q26 37 45 37q11 0 20 -10
q8 -10 8 -20q0 -37 -95 -144q-151 -168 -274 -168q-74 0 -113 53q-28 39 -28 92q0 104 86 241q83 131 192 211q64 46 112 46z" />
    <glyph glyph-name="d" unicode="d" horiz-adv-x="535" 
d="M345 662q100 209 189 364q86 150 117 189q34 43 64 43q16 0 29 -13q12 -13 12 -28q0 -23 -34 -77q-145 -234 -266 -475q-140 -281 -140 -421q0 -57 22 -90q4 -7 36 -32q6 -5 6 -20q0 -20 -15.5 -36.5t-34.5 -16.5q-23 0 -51 28q-40 40 -48 92q-3 22 -7 82
q-105 -189 -200 -189q-55 0 -88 62q-22 41 -22 93q0 156 114 314q113 156 243 156q36 0 74 -25zM311 580q-27 18 -47 18q-84 0 -159 -103q-99 -134 -99 -259q0 -15 6 -28q12 -25 36 -25q35 0 85 68q67 90 124 213q20 42 39 84l9 19z" />
    <glyph glyph-name="e" unicode="e" horiz-adv-x="562" 
d="M20 270v-18q0 -22 11 -38q25 -37 82 -37q125 0 289 192q29 33 49 33q11 0 20 -11q6 -8 6 -15q0 -39 -96 -132q-75 -73 -160 -119t-158 -46q-75 0 -118 52q-29 36 -29 98q0 169 159 331q129 132 225 132q26 0 47 -16q26 -21 26 -55q0 -53 -49 -130q-101 -160 -304 -221z
M42 348q70 24 110 54q70 54 111 122q15 24 15 43q0 20 -19 20q-26 0 -74 -39q-86 -69 -143 -200z" />
    <glyph glyph-name="f" unicode="f" horiz-adv-x="523" 
d="M107 550q153 330 299 537q99 140 164 204q45 45 77 45q12 0 21 -8q14 -10 14 -27q0 -22 -35 -63q-221 -252 -400 -604q160 61 223 61q46 0 76 -23q31 -24 31 -55q0 -16 -11 -29q-15 -19 -39 -19q-17 0 -67 28q-14 7 -36 7q-100 0 -240 -91q60 -28 85 -74q34 -65 34 -160
q0 -245 -146 -517q-63 -116 -122 -176q-63 -65 -129 -65q-50 0 -81 48q-25 40 -25 109q0 148 112 445q14 36 80 185q17 37 33 79q-8 -2 -15 -2q-27 0 -27 30q0 53 124 135zM141 419q-56 -106 -148 -342q-95 -241 -95 -374q0 -26 13 -46q14 -20 33 -20q62 0 163 208
q114 232 114 425q0 75 -29 113q-11 15 -51 36z" />
    <glyph glyph-name="g" unicode="g" horiz-adv-x="625" 
d="M241 164q107 78 159 142q77 93 109 151q16 26 33 26q24 0 24 -23q0 -27 -38 -90q-118 -192 -354 -335q-110 -230 -162 -312q-138 -216 -260 -216q-64 0 -92 50q-16 29 -16 66q0 157 202 301q32 24 259 150q44 93 68 146q-105 -110 -174 -110q-43 0 -67 44q-15 29 -15 60
q0 72 59 185q84 163 202 258q99 79 175 79q39 0 67 -29q19 -19 19 -56q0 -46 -31 -114q23 -22 23 -33q0 -7 -10 -20q-27 -37 -87 -139q-53 -89 -93 -181zM234 395q-14 15 -14 21q0 9 15 23q50 48 81 100q25 41 25 64q0 27 -25 27q-43 0 -123 -82q-95 -97 -148 -217
q-26 -60 -26 -92q0 -18 8 -27t23 -9q35 0 98 72q40 46 68 90q19 29 18 30zM45 -42q-132 -56 -233 -170q-47 -53 -67 -112q-6 -18 -6 -30q0 -13 6 -23q11 -18 31 -18q62 0 145 133q72 115 124 220z" />
    <glyph glyph-name="h" unicode="h" horiz-adv-x="640" 
d="M185 487q74 77 148 129q95 66 136 66q17 0 33 -14q18 -16 18 -37q0 -27 -43 -84q-83 -110 -126 -200q-38 -78 -38 -106q0 -27 26 -27q54 0 182 192q26 39 47 39t21 -24q0 -39 -76 -149q-66 -96 -138 -147q-51 -35 -92 -35q-43 0 -62 37q-12 23 -12 51q0 89 63 203
q15 27 90 154q-204 -103 -345 -445q-13 -39 -40 -39q-19 0 -31 13q-12 14 -12 34q0 33 64 187q119 286 222 484q103 200 229 415q30 52 47 70t36 18q18 0 31 -19q10 -14 10 -32q0 -28 -32 -75q-108 -167 -215 -367q-115 -214 -141 -292z" />
    <glyph glyph-name="i" unicode="i" horiz-adv-x="270" 
d="M204 677q17 0 28 -13q8 -11 8 -22q0 -18 -29 -60q-104 -161 -148 -265q-47 -107 -83 -220q-16 -50 -50 -50q-20 0 -32 16q-11 13 -11 28q0 30 64 200q50 134 162 296q36 53 54 71q18 19 37 19zM394 1048q45 0 45 -46q0 -42 -44 -93q-42 -49 -81 -49q-19 0 -31 14
q-12 13 -12 32q0 48 53 102q39 40 70 40z" />
    <glyph glyph-name="j" unicode="j" horiz-adv-x="455" 
d="M-68 69l20 42l61 129q125 269 163 337q59 105 106 105q15 0 28 -12q12 -13 12 -25q0 -18 -60 -104q-37 -54 -111 -199q-59 -119 -86 -187q76 51 125 100q57 56 111 141q25 38 45 38q11 0 19 -9q9 -10 9 -22q0 -34 -42 -93q-103 -149 -324 -275q-21 -34 -67 -138
q-81 -184 -166 -297q-47 -61 -113 -100q-44 -26 -92 -26q-56 0 -94 44q-24 28 -24 69q0 105 107 231q130 154 373 251zM-124 -37q-94 -36 -202 -140q-126 -119 -126 -208q0 -21 10 -31.5t29 -10.5q42 0 89 47q78 76 200 343zM464 1043q45 0 45 -46q0 -42 -44 -93
q-42 -49 -81 -49q-19 0 -32 14q-11 13 -11 33q0 47 53 101q39 40 70 40z" />
    <glyph glyph-name="k" unicode="k" horiz-adv-x="728" 
d="M352 506q-65 -161 -65 -245q0 -41 16 -68q20 -34 53 -34q68 0 157 91q59 58 99 118q26 40 49 40t23 -23q0 -38 -92 -156q-136 -175 -264 -175q-77 0 -109 75q-24 55 -24 116q0 51 24 151q-65 -54 -197 -264q-35 -57 -64 -57q-15 0 -26 13q-11 14 -11 28q0 40 105 267
q185 397 396 668q114 148 205 216q82 62 131 62q22 0 39 -18q22 -22 22 -54q0 -85 -89 -218q-93 -137 -316 -331q-125 -108 -225 -170q-13 -26 -73 -152q125 135 198 186q47 32 127 67q54 23 78 23q13 0 23 -10q11 -9 11 -24q0 -33 -45 -46q-76 -23 -156 -76zM266 678
q164 108 306 275q71 83 114 160q30 54 30 77t-21 23q-56 0 -193 -172q-113 -143 -236 -363z" />
    <glyph glyph-name="l" unicode="l" horiz-adv-x="440" 
d="M106 410q-30 -78 -45 -126t-15 -67q0 -25 24 -25q36 0 93 68q27 33 80 119q21 34 44 34q26 0 26 -25q0 -43 -99 -174q-103 -137 -191 -137q-38 0 -62 32q-17 23 -17 56q0 56 34 155t101 241q172 361 351 595q143 188 237 188q30 0 49 -23q20 -23 20 -53q0 -140 -250 -466
q-112 -145 -268 -290q-41 -38 -112 -102zM177 569q208 178 372 450q85 141 85 187q0 22 -19 22q-55 0 -200 -219q-120 -180 -238 -440z" />
    <glyph glyph-name="m" unicode="m" horiz-adv-x="727" 
d="M114 411q84 88 148 138q97 75 130 75q16 0 28 -12q11 -11 11 -24q0 -19 -35 -62q-54 -68 -75 -116q234 235 320 235q18 0 31 -11q14 -12 14 -30q0 -28 -43 -72q-189 -195 -189 -320q0 -51 18 -73l26 -33q8 -9 8 -23q0 -16 -13 -30q-15 -16 -34 -16q-33 0 -61 42
q-34 50 -34 118q0 91 52 184q18 33 60 88q-85 -64 -173 -176q-60 -76 -108 -170q-23 -45 -54 -45q-34 0 -34 38q0 41 56 169q32 73 79 154q-171 -132 -257 -358q-21 -50 -56 -50q-16 0 -26 12q-11 12 -11 29q0 59 66 213q69 163 156 293q60 91 93 91q30 0 30 -32
q0 -14 -37 -70q-65 -105 -86 -156z" />
    <glyph glyph-name="n" unicode="n" horiz-adv-x="527" 
d="M127 421q13 12 25 24q209 204 280 204q39 0 39 -43q0 -30 -35 -71q-191 -223 -191 -393q0 -55 30 -105q14 -23 14 -36q0 -12 -12 -23q-13 -14 -31 -14q-41 0 -69 52q-27 49 -27 119q0 135 102 299q-136 -87 -253 -308q-30 -53 -64 -53q-17 0 -28 12q-14 14 -14 36
q0 54 123 283q66 124 104 180q38 55 65 55q13 0 25 -12q14 -14 14 -32q0 -22 -29 -63q-42 -61 -68 -111z" />
    <glyph glyph-name="o" unicode="o" horiz-adv-x="475" 
d="M328 723q82 0 82 -100q0 -133 -123 -337q-134 -221 -259 -221q-58 0 -85 54q-14 27 -14 65q0 128 88 278q82 139 193 216q65 45 118 45zM224 345q-25 20 -25 31q0 8 32 44q90 101 90 163q0 8 -5 16q-8 15 -25 15q-32 0 -94 -62q-80 -80 -122 -165q-49 -97 -49 -161
q0 -17 9 -30q13 -18 33 -18q48 0 103 72q24 30 39 62t14 33z" />
    <glyph glyph-name="p" unicode="p" horiz-adv-x="540" 
d="M230 609q41 26 61 36q41 20 80 20q44 0 66 -25.5t22 -76.5q0 -70 -49 -168q-76 -155 -184 -244q-91 -75 -171 -75q-44 0 -87 34q-137 -277 -245 -565q-23 -69 -54 -69q-15 0 -30 20q-11 14 -11 31q0 54 132 351q204 458 387 761q38 64 51 88q35 65 68 65q34 0 34 -41
q0 -23 -24 -62q-29 -50 -46 -80zM5 194q22 -23 55 -23q93 0 206 165q42 61 67 125q20 51 20 77q0 18 -8.5 27t-26.5 9q-47 0 -115 -65q-65 -63 -125 -177q-55 -105 -73 -138z" />
    <glyph glyph-name="q" unicode="q" horiz-adv-x="520" 
d="M158 187q-95 -116 -165 -116q-46 0 -72 44q-17 28 -17 69q0 93 64 218q86 166 210 263q73 56 137 56q54 0 76 -40q16 -28 16 -60q0 -12 -2 -33q29 -11 29 -29q0 -12 -19 -46q-67 -130 -223 -479q-137 -303 -206 -535q-17 -70 -55 -70q-21 0 -33 21q-9 15 -9 32
q0 61 115 344q54 134 100 236q36 79 54 125zM211 351q-4 14 -4 21q0 23 35 59q67 68 67 153q0 20 -7 30t-22 10q-51 0 -160 -143q-52 -68 -91 -162q-27 -65 -27 -98q0 -15 9 -26q11 -16 31 -16q41 0 101 72q26 32 45 62q23 36 23 38z" />
    <glyph glyph-name="r" unicode="r" horiz-adv-x="626" 
d="M124 407q98 105 226 205q46 36 98 67q26 15 33 15q15 0 30 -22q9 -12 9 -22q0 -18 -38 -49q-102 -81 -102 -122q0 -23 26 -23q43 0 148 71q18 12 30 12q8 0 16 -8q9 -9 9 -19q0 -30 -84 -92q-88 -66 -167 -66q-32 0 -59 17q-23 14 -23 50q0 25 21 57q-79 -56 -186 -192
q-62 -84 -123 -207q-23 -46 -57 -46q-37 0 -37 35q0 34 58 182q86 220 180 341q58 75 97 75q13 0 24 -8q13 -10 13 -25t-20 -42q-4 -5 -53 -67q-45 -59 -69 -117z" />
    <glyph glyph-name="s" unicode="s" horiz-adv-x="521" 
d="M401 742q62 0 93 -22t31 -67q0 -59 -44 -114q-42 -52 -126 -84q-46 -17 -77 -17q-42 0 -42 37q0 25 24 38q6 3 68 17q37 8 68 35q27 23 27 50q0 21 -12 31t-36 10q-58 0 -128 -47q-81 -53 -81 -126q0 -52 53 -130q59 -85 59 -144q0 -88 -78 -138q-48 -31 -109 -31
q-96 0 -146 69q-35 49 -35 116q0 78 40 131q26 35 54 35q25 0 25 -20q0 -8 -9 -24q-23 -43 -23 -101q0 -49 35 -83q31 -30 71 -30q39 0 61 26q18 22 18 56q0 42 -48 109q-66 92 -66 167q0 100 109 177q106 74 224 74z" />
    <glyph glyph-name="t" unicode="t" horiz-adv-x="500" 
d="M308 722q-65 -101 -120 -226q-79 -178 -79 -266q0 -25 10.5 -38t31.5 -13q50 0 121 94q45 58 80 116q19 33 41 33q13 0 22 -9q8 -9 8 -18q0 -37 -97 -165q-116 -154 -212 -154q-51 0 -85 47q-21 30 -21 85q0 121 70 282q17 40 94 193q-27 -7 -41 -7q-21 0 -37 10
q-22 14 -22 35q0 25 29 40q8 4 74 13q24 4 70 19q35 63 114 171q44 60 61 78q24 25 42 25q13 0 26 -14q12 -13 12 -26q0 -26 -56 -103q-37 -50 -55 -81q111 30 159 30q55 0 55 -46q0 -23 -19 -34q-10 -6 -52 -10q-17 1 -151 -38q-37 -11 -73 -23z" />
    <glyph glyph-name="u" unicode="u" horiz-adv-x="532" 
d="M221 231q-43 -60 -76 -96q-58 -64 -115 -64q-49 0 -76 44q-19 31 -19 74q0 129 110 296q51 78 101 119q39 33 64 33q14 0 26 -12q10 -11 10 -22q0 -19 -37 -62q-83 -99 -126 -182q-50 -97 -50 -152q0 -14 6.5 -21.5t18.5 -7.5q51 0 142 146q47 76 81 168q18 50 47 89
q28 35 55 35q15 0 27 -13q13 -14 13 -31q0 -36 -69 -162q-47 -87 -47 -145q0 -62 33 -106q9 -12 55 -38q22 -13 22 -42q0 -18 -15.5 -31t-37.5 -13q-50 0 -91 40q-37 36 -47 104q-2 9 -5 52z" />
    <glyph glyph-name="v" unicode="v" horiz-adv-x="567" 
d="M311 351q-61 -105 -105 -156q-107 -126 -178 -126q-43 0 -66 47q-16 31 -16 65q0 66 57 191q51 109 86 172q26 45 31 59q12 27 21 41q13 21 36 21q12 0 21 -10q10 -12 10 -28q0 -45 -81 -201q-81 -154 -81 -204q0 -32 25 -32q43 0 122 112q35 50 73 127q-1 25 -1 38
q0 75 28 130q36 71 97 71q35 0 35 -42q0 -67 -70 -197q20 -4 32 -4q33 0 86 42q42 34 55 34q11 0 23 -13q9 -11 9 -22q0 -36 -50 -81q-58 -51 -132 -51q-29 0 -67 17z" />
    <glyph glyph-name="w" unicode="w" horiz-adv-x="774" 
d="M290 357q-86 -116 -127 -160q-51 -55 -88 -84q-42 -31 -78 -31q-35 0 -54 35q-15 27 -15 60q0 109 130 300q118 173 175 173q14 0 27 -13q12 -12 12 -28q0 -22 -39 -61q-83 -82 -144 -185q-52 -88 -52 -115q0 -20 18 -20q60 0 260 260q65 84 79 97q26 24 53 24
q18 0 31 -10q11 -10 11 -21q0 -12 -48 -101q-109 -192 -109 -259q0 -26 21 -26q36 0 99 83q60 78 111 198q22 52 39 137q20 97 80 97q34 0 34 -38q0 -131 -146 -360q-152 -239 -256 -239q-77 0 -77 95q0 78 53 192z" />
    <glyph glyph-name="x" unicode="x" horiz-adv-x="513" 
d="M78 371q-3 31 -3 60q0 27 2 67q3 67 3 78q1 63 13 84q15 27 43 27q18 0 30 -13q13 -16 13 -36q0 -14 -3 -40q-3 -25 -3 -63q0 -15 1 -47q20 23 83 93q99 112 135 112q11 0 19 -10q8 -11 8 -24q0 -25 -31 -52q-126 -112 -215 -238q-1 -16 -1 -22q0 -76 3 -105
q5 -40 34 -40q30 0 78 62q59 76 86 123q26 44 52 44q21 0 21 -25q0 -46 -97 -177q-55 -74 -98 -113q-46 -41 -88 -41q-59 0 -73 74q-8 37 -12 113q-20 -23 -81 -100q-92 -117 -127 -117q-31 0 -31 52q0 19 13 35q8 11 43 41q65 58 114 117q52 62 69 81z" />
    <glyph glyph-name="y" unicode="y" horiz-adv-x="691" 
d="M301 358q-89 -105 -142 -156q-105 -100 -175 -100q-34 0 -54 25q-15 20 -15 50q0 108 128 287q130 182 188 182q16 0 28 -14q11 -11 11 -26q0 -22 -11.5 -38.5t-65.5 -73.5q-57 -59 -105 -128q-55 -78 -55 -114q0 -21 20 -21q40 0 150 109q69 69 108 116q8 10 70 95
q56 75 69 89q30 35 56 35q16 0 29 -14q12 -13 12 -30q0 -29 -40 -97q-48 -83 -88 -155q-63 -112 -97 -200q64 37 117 91q90 90 110 134q19 40 39 40q28 0 28 -28q0 -53 -90 -158q-108 -126 -266 -214q-84 -202 -159 -335q-140 -245 -289 -245q-61 0 -98 47q-29 36 -29 91
q0 156 219 319q64 48 190 120q51 29 80 47q18 46 55 122q41 82 72 148zM117 -35q-106 -54 -217 -154q-112 -103 -112 -192q0 -19 11 -32q15 -18 39 -18q75 0 166 157q15 26 82 173q14 30 31 66z" />
    <glyph glyph-name="z" unicode="z" horiz-adv-x="449" 
d="M17 194q91 31 160 31q116 0 116 -60q0 -18 -14 -33t-32 -15q-11 0 -47 9q-21 6 -41 6q-85 0 -161 -36q-54 -26 -72 -26q-23 0 -40 15q-16 14 -16 31q0 41 98 165q147 183 311 312q-109 -13 -149 -13q-96 0 -96 57q0 18 12 30q11 11 25 11q12 0 53 -7q16 -3 49 -3
q86 0 167 19q31 7 53 7q25 0 42 -18q13 -13 13 -32q0 -33 -56 -72q-164 -130 -231 -199q-95 -101 -144 -179z" />
    <glyph glyph-name="braceleft" unicode="{" horiz-adv-x="869" 
d="M334 429q30 -42 30 -76q0 -58 -58 -173q-41 -83 -122 -320q-44 -129 -44 -199q0 -45 33 -71q31 -25 66 -25q15 0 43 5q34 6 49 6q48 0 48 -43q0 -64 -150 -64q-91 0 -137 46q-55 54 -55 142q0 75 49 218q62 181 143 383q26 64 26 91q0 25 -19 43q-8 8 -42 23
q-38 18 -38 49q0 54 80 53q48 0 76 10q45 17 97 113q248 474 337 602q110 155 206 194q72 29 170 29q91 0 91 -50q0 -20 -17 -37q-17 -16 -47 -16q-14 0 -35 2q-23 2 -37 2q-76 0 -141 -50q-86 -66 -164 -201q-110 -192 -295 -558q-43 -85 -143 -128z" />
    <glyph glyph-name="bar" unicode="|" horiz-adv-x="1024" 
d="M543 1365h102v-1706h-102v1706z" />
    <glyph glyph-name="braceright" unicode="}" horiz-adv-x="869" 
d="M466 504q-30 42 -30 77q0 58 58 173q41 82 122 320q44 128 44 199q0 45 -33 71q-31 25 -66 25q-15 0 -43 -5q-34 -7 -50 -7q-47 0 -47 43q0 65 151 65q90 0 136 -46q55 -54 55 -142q0 -75 -49 -218q-63 -184 -143 -383q-26 -64 -26 -91q0 -25 20 -43q7 -8 41 -23
q38 -18 38 -49q0 -54 -79 -53q-49 0 -77 -10q-45 -17 -97 -113q-247 -473 -337 -602q-109 -155 -206 -194q-72 -29 -170 -29q-91 0 -91 50q0 20 17 36t48 16q13 0 34 -1q21 -2 36 -2q77 0 142 50q86 66 164 201q110 192 296 558q42 85 142 127z" />
    <glyph glyph-name="asciitilde" unicode="~" horiz-adv-x="1365" 
d="M340 1211l-65 41q41 78 76 119q79 97 193 97q79 0 236 -79q105 -52 142 -62q35 -10 65 -10q75 0 128 54q34 35 73 101l67 -39q-110 -214 -273 -214q-50 0 -134 30q-16 6 -155 74q-99 48 -158 48q-105 0 -195 -160z" />
    <glyph glyph-name="nonbreakingspace" unicode="&#xa0;" horiz-adv-x="512" 
 />
    <glyph glyph-name="exclamdown" unicode="&#xa1;" horiz-adv-x="536" 
d="M202 423q20 0 35 -22q13 -20 13 -42q0 -28 -29 -78q-8 -14 -70 -109q-80 -135 -157 -263q-27 -47 -156 -284q-36 -67 -73 -132q-32 -58 -61 -118q-22 -45 -55 -45q-23 0 -35 18q-10 15 -10 34q0 41 60 154q236 445 444 770q29 47 40 68q27 49 54 49zM348 725q46 0 46 -52
q0 -51 -32 -106q-28 -49 -65 -49q-21 0 -36 20q-10 13 -10 33q0 48 26 98q28 56 71 56z" />
    <glyph glyph-name="cent" unicode="&#xa2;" 
d="M471 859q23 45 47 84q24 38 48 38q30 0 30 -24q0 -17 -56 -108q70 -31 70 -104q0 -86 -52 -142q-48 -51 -84 -51q-30 0 -30 29q0 20 27 40q25 19 39 47q15 32 15 57q0 32 -33 42q-91 -143 -118 -195q-115 -212 -138 -252q83 7 143 43q34 21 80 54q45 34 60 49
q36 36 55 36q28 0 28 -22q0 -50 -128 -145q-140 -104 -261 -104h-19q-11 -23 -47 -94q-30 -66 -41 -82q-18 -28 -37 -28q-11 0 -20 13q-6 8 -6 16q0 21 42 106q6 11 25 48l16 32q-91 34 -91 133q0 119 96 251q105 145 237 206q44 20 103 27zM414 764q-85 -34 -178 -144
q-97 -114 -97 -218q0 -43 34 -67q80 143 114 210q109 186 127 219z" />
    <glyph glyph-name="sterling" unicode="&#xa3;" 
d="M400 677q26 6 113 27q40 9 80 9q42 0 69 -17q26 -17 26 -46q0 -18 -11 -31q-12 -15 -28 -15q-11 0 -35 6q-19 4 -43 4q-46 0 -133 -21l-44 -12q-14 -3 -42 -10q-115 -296 -234 -430q206 71 345 71q58 0 82 -30q10 -12 10 -25q0 -25 -22 -42q-18 -14 -37 -14l-72 2
q-36 0 -130 -16q-132 -23 -357 -109q-31 -12 -57 -12q-21 0 -36 13q-14 13 -14 34q0 41 64 78q120 67 190 173q44 71 108 200q17 35 37 82l-32 -4q-62 -9 -102 -9q-70 0 -70 47q0 25 20 43q17 14 36 14q8 0 23 -2q24 -4 47 -4q62 0 125 16l18 36q84 170 120 230.5t84 111.5
q112 117 265 117q88 0 88 -56q0 -15 -10 -27q-13 -15 -30 -15q-6 0 -33 4q-10 2 -23 2q-83 0 -144 -50q-125 -100 -211 -323z" />
    <glyph glyph-name="currency" unicode="&#xa4;" 
d="M163 707q-26 40 -39 61q-19 33 -19 60q0 29 17 45q11 11 26 11q29 0 47 -43q21 -50 38 -65q111 89 166 89q41 0 54 -46q48 -17 76 -47q29 30 44 42q24 19 48 19q45 0 45 -43q0 -22 -19 -41q-4 -4 -40 -31q-9 -7 -31 -30q4 -42 4 -65q0 -125 -114 -263q8 -12 27 -35
q44 -55 44 -88q0 -18 -11 -30t-27 -12q-26 0 -56 34q-11 12 -43 70q-75 -45 -144 -45q-35 0 -68.5 15t-66.5 45q-40 -31 -69 -82q-12 -20 -33 -20q-40 0 -40 49q0 55 98 135q-11 37 -11 64q0 90 37 159q19 34 60 88zM355 761q-189 -128 -189 -290q0 -78 48 -115
q22 -17 55 -17q49 0 89 31q57 45 95 118q39 74 39 147q0 58 -43 95q-35 31 -94 31z" />
    <glyph glyph-name="yen" unicode="&#xa5;" 
d="M304 548q-95 -15 -143 -15q-67 0 -67 44q0 25 19 41q16 14 34 14q8 0 22 -2q25 -4 45 -4q41 0 83 8q-51 296 -89 404q-14 40 -14 47q0 17 17 31q15 12 35 12q36 0 52 -37q32 -75 62 -234q19 -102 26 -192q19 34 89 133q75 107 183 244q38 46 54 63q17 16 33 16
q17 0 30 -19q11 -16 11 -35q0 -33 -36 -80q-31 -40 -187 -248l-19 -26l-20 -26q70 17 110 17t66 -17q24 -15 24 -43q0 -17 -10 -30q-12 -14 -27 -14q-10 0 -33 6q-19 4 -42 4q-47 0 -107 -16q-49 -13 -62 -16q-45 -65 -64 -98l31 8q68 17 108 17t66 -17q24 -16 24 -44
q0 -17 -10 -30q-12 -14 -27 -14q-9 0 -34 6q-18 5 -44 5q-39 0 -91 -13q-60 -16 -73 -19q-20 -43 -41 -89q-80 -182 -98 -240q-22 -71 -41 -90t-43 -19q-44 0 -44 44q0 45 59 189q33 80 85 179q-91 -15 -136 -15q-66 0 -66 44q0 25 19 41q16 14 34 14q8 0 22 -2q24 -4 45 -4
q63 0 134 20q8 15 25 45q13 24 21 40v12z" />
    <glyph glyph-name="brokenbar" unicode="&#xa6;" horiz-adv-x="1024" 
d="M543 1365h102v-670h-102v670zM543 314h102v-655h-102v655z" />
    <glyph glyph-name="section" unicode="&#xa7;" horiz-adv-x="847" 
d="M387 919q0 106 35 180q50 105 151 169q91 58 184 58q74 0 127 -55q60 -60 60 -152q0 -75 -55 -176q-58 -107 -108 -107q-13 0 -25 11q-16 13 -16 28q0 19 21 48q48 65 61 93q23 49 23 98q0 52 -27 83q-30 34 -70 34q-90 0 -178 -92q-87 -91 -87 -217q0 -76 26 -137
q21 -47 70 -138q96 -176 96 -290q0 -123 -102 -226q-34 -35 -105 -81q-7 -145 -67 -240q-52 -83 -134 -133q-86 -52 -175 -52q-96 0 -159 76q-57 70 -57 162q0 85 58 185q47 80 97 80q11 0 21 -6q22 -12 22 -34q0 -21 -14 -40l-40 -53q-43 -57 -43 -130q0 -60 36 -99
q39 -42 90 -42q83 0 153 67q62 59 92 141q23 62 23 119q0 100 -95 291q-45 91 -73 159q-31 76 -31 151q0 97 81 180q48 49 134 87zM400 816q-130 -74 -130 -169q0 -60 64 -194q10 -22 74 -149q34 -67 48 -141q60 45 90 95t30 106q0 82 -68 205q-71 129 -87 170
q-12 34 -21 77z" />
    <glyph glyph-name="dieresis" unicode="&#xa8;" horiz-adv-x="1024" 
d="M683 1067q21 0 33 -14q12 -13 12 -32q0 -42 -44 -93q-42 -49 -81 -49q-19 0 -32 14q-11 13 -11 33q0 47 53 101q39 40 70 40zM892 1067q21 0 33 -14q12 -13 12 -32q0 -42 -44 -93q-42 -49 -81 -49q-19 0 -31 14q-12 13 -12 33q0 47 53 101q39 40 70 40z" />
    <glyph glyph-name="copyright" unicode="&#xa9;" horiz-adv-x="1543" 
d="M1041 1089q44 0 69 -32q19 -24 19 -59q0 -91 -82 -194q-64 -80 -102 -80q-18 0 -31 16q-11 12 -11 27q0 25 40 55q51 37 78 75q41 58 41 98q0 21 -19 21q-58 0 -181 -132q-112 -119 -169 -231q-64 -125 -64 -213q0 -33 20 -56q21 -25 51 -25q57 0 149 91q61 61 101 129
q13 23 30 23q26 0 26 -24q0 -31 -67 -121q-56 -75 -122 -123q-76 -54 -145 -54q-75 0 -115 64q-26 41 -26 92q0 125 120 312q102 159 216 256q100 85 174 85zM1063 1385q231 0 377 -145q139 -138 139 -352q0 -173 -96 -356q-137 -263 -399 -418q-228 -135 -469 -135
q-138 0 -256 62q-153 81 -216 244q-35 88 -35 191q0 174 95 357q134 257 401 417q225 135 459 135zM1044 1306q-232 0 -465 -170q-204 -149 -312 -359q-76 -148 -76 -289q0 -128 60 -233q57 -100 165 -150q101 -47 226 -47q235 0 457 161q207 150 320 366q77 146 77 287
q0 129 -59 235q-111 199 -393 199z" />
    <glyph glyph-name="ordfeminine" unicode="&#xaa;" horiz-adv-x="512" 
d="M304 692q-61 -87 -109 -87q-32 0 -52 23q-21 25 -21 64q0 110 94 229q81 103 163 103q34 0 54 -23q12 -14 12 -32q0 -15 -10 -37q9 -12 9 -23q0 -15 -19 -47q-18 -30 -36 -79q-19 -52 -19 -82q0 -24 13 -38q4 -5 24 -14t20 -32q0 -34 -38 -34q-37 0 -64 32q-21 25 -21 77
v0zM383 926q-11 18 -25 18q-46 0 -99 -79q-61 -89 -61 -150q0 -25 18 -25q40 0 120 162q29 59 47 74zM240 505q22 0 52 -1q66 -2 86 -3q47 0 62 -7q14 -8 14 -28q0 -36 -33 -36q-7 0 -25 1q-30 3 -157 3q-77 0 -115 -7q-19 -3 -29 -3q-20 0 -31 16q-6 8 -6 20q0 38 66 43
q36 2 116 2z" />
    <glyph glyph-name="guillemotleft" unicode="&#xab;" horiz-adv-x="565" 
d="M155 577q21 0 36 -16q16 -18 16 -32q0 -24 -49 -61q-56 -42 -56 -75q0 -24 24 -66q25 -44 25 -56q0 -21 -18 -39t-40 -18q-42 0 -76 72q-31 68 -31 103q0 56 73 127q61 61 96 61zM376 577q21 0 36 -16q16 -18 16 -32q0 -24 -49 -61q-56 -42 -56 -75q0 -24 24 -66
q25 -45 25 -56q0 -21 -17 -39q-19 -18 -41 -18q-42 0 -76 72q-31 68 -31 103q0 54 73 127q60 61 96 61z" />
    <glyph glyph-name="logicalnot" unicode="&#xac;" horiz-adv-x="1024" 
d="M935 0v451h-785v95h887v-546h-102z" />
    <glyph glyph-name="sfthyphen" unicode="&#xad;" horiz-adv-x="497" 
d="M152 489q31 0 73 -2q86 -3 109 -3q58 0 77 -13q18 -12 18 -44q0 -30 -17 -47q-10 -9 -24 -9q-10 0 -32 2q-37 4 -196 4q-97 0 -145 -11q-23 -5 -35 -5q-27 0 -41 26q-7 13 -7 30q0 52 48 63q36 9 172 9z" />
    <glyph glyph-name="registered" unicode="&#xae;" horiz-adv-x="1543" 
d="M699 574q-65 -126 -92 -202q-18 -51 -27 -60q-11 -11 -32 -11t-32 13q-10 12 -10 25q0 29 53 146q34 75 96 181q-7 25 -7 39q0 25 20 40q10 7 20 7q8 0 20 -2q65 108 101 177q-12 -5 -19 -5q-13 0 -21 14q-6 9 -6 20q0 36 45 61q27 14 49 23q15 53 49 53q22 0 38 -19
q26 7 49.5 10t44.5 3q72 0 110 -40q37 -39 37 -95q0 -87 -70 -163q-65 -71 -172 -108q-83 -29 -164 -29h-21q7 -24 62 -137q41 -86 82 -148q11 -16 11 -32q0 -14 -15.5 -27.5t-32.5 -13.5q-20 0 -49 50q-60 100 -117 230zM793 735q118 9 189 53q61 37 98 87q28 39 28 73
q0 27 -18.5 40.5t-55.5 13.5q-24 0 -53 -7.5t-62 -22.5q-27 -60 -126 -237zM1063 1385q231 0 377 -145q139 -138 139 -352q0 -173 -96 -356q-137 -263 -399 -418q-228 -135 -469 -135q-138 0 -256 62q-153 81 -216 244q-35 88 -35 191q0 174 95 357q134 257 401 417
q225 135 459 135zM1044 1306q-232 0 -465 -170q-204 -149 -312 -359q-76 -148 -76 -289q0 -128 60 -233q57 -100 165 -150q101 -47 226 -47q235 0 457 161q207 150 320 366q77 146 77 287q0 129 -59 235q-111 199 -393 199z" />
    <glyph glyph-name="overscore" unicode="&#xaf;" horiz-adv-x="1024" 
d="M82 1742h1024v-93h-1024v93z" />
    <glyph glyph-name="degree" unicode="&#xb0;" 
d="M667 1379q112 0 195 -80q82 -80 82 -193q0 -112 -82 -192q-82 -81 -198 -81t-198 81q-82 80 -82 192q0 115 82 193q84 80 201 80zM662 1309q-83 0 -144 -60q-60 -59 -60 -143t60 -143q61 -60 147 -60q85 0 146 60q60 59 60 143q0 86 -60 143q-63 60 -149 60z" />
    <glyph glyph-name="plusminus" unicode="&#xb1;" 
d="M313 663q52 115 92 189q39 74 90 74q23 0 23 -24t-45 -118q-27 -56 -58 -123q94 -3 114 -3q66 -1 88 -12q18 -9 18 -38q0 -49 -43 -49q-11 0 -36 3q-17 2 -147 3h-36q-30 -72 -63 -165q-28 -79 -46 -106q-21 -32 -47 -32q-15 0 -25 9q-13 11 -13 27q0 43 91 266
q-88 -4 -114 -9q-27 -5 -43 -5q-25 0 -40 22q-8 12 -8 27q0 45 52 55q27 6 170 8zM177 185q35 0 89 -2q97 -3 126 -3q65 0 88 -12q18 -9 18 -37q0 -22 -12 -36t-31 -14q-11 0 -36 3q-43 4 -231 4q-112 0 -169 -11q-26 -5 -41 -5q-27 0 -41 22q-8 11 -8 27q0 45 52 56
q42 8 196 8z" />
    <glyph glyph-name="twosuperior" unicode="&#xb2;" horiz-adv-x="461" 
d="M236 659q91 25 167 25q36 0 58 -15q22 -14 22 -34q0 -14 -10 -25q-11 -11 -25 -11q-4 0 -29 6q-14 4 -38 4q-49 0 -140 -25q-62 -18 -80 -18q-20 0 -35 18q-13 17 -13 35q0 21 34 53q106 101 246 201q89 63 122 91q47 40 47 80q0 21 -11 31.5t-33 10.5q-54 0 -126 -58
q-36 -28 -47 -28q-9 0 -18 9q-11 9 -11 22q0 25 56 65q88 64 167 64q47 0 79 -30q31 -28 31 -68q0 -70 -72 -137q-29 -27 -110 -85q-128 -91 -231 -181z" />
    <glyph glyph-name="threesuperior" unicode="&#xb3;" horiz-adv-x="461" 
d="M506 935q52 -25 52 -89q0 -99 -86 -190q-85 -90 -176 -90q-58 0 -94 46q-26 33 -26 74q0 70 58 70q35 0 35 -29q0 -5 -1 -13t-1 -19q0 -52 45 -52q48 0 106 68q55 64 55 122q0 62 -52 62q-12 0 -23 -3q-16 -5 -24 -5q-24 0 -24 30q0 40 53 54q122 31 122 91
q0 14 -7.5 20.5t-23.5 6.5q-41 0 -108 -40q-11 -7 -24 -7q-27 0 -27 29q0 23 33 46q73 50 143 50q44 0 73 -26q33 -27 33 -67q0 -85 -111 -139z" />
    <glyph glyph-name="acute" unicode="&#xb4;" horiz-adv-x="1024" 
d="M787 1105q17 0 28 -13q11 -11 11 -23q0 -25 -90 -136q-47 -58 -66 -75q-21 -19 -39 -19q-31 0 -31 35q0 24 38 69q28 29 91 119q31 43 58 43z" />
    <glyph glyph-name="mu" unicode="&#xb5;" horiz-adv-x="532" 
d="M-40 106q-31 -130 -42 -294q-4 -59 -43 -59q-18 0 -30 16.5t-12 41.5q0 30 31 214q8 46 54 180q74 218 166 333q79 99 127 99q13 0 25 -12q11 -11 11 -22q0 -19 -37 -62q-84 -99 -127 -182q-50 -97 -50 -152q0 -29 25 -29q51 0 141 146q49 77 81 168q19 50 48 89
q28 35 55 35q15 0 27 -13q13 -14 13 -31q0 -36 -69 -162q-24 -45 -35 -72q-12 -32 -12 -73q0 -62 33 -106q9 -12 55 -38q22 -13 22 -42q0 -18 -15.5 -31t-37.5 -13q-50 0 -91 40q-44 43 -52 156q-43 -60 -76 -96q-58 -64 -115 -64q-39 0 -70 35z" />
    <glyph glyph-name="paragraph" unicode="&#xb6;" 
d="M872 1182q-8 -39 -19 -73q-30 -99 -83 -218l-158 -354q-186 -415 -235 -791q-11 -91 -26 -115q-12 -22 -35 -22q-47 0 -47 65q0 161 100 505q34 116 135 358q30 73 195 432q62 138 76 229q5 30 12 44q-19 14 -41 21t-46 7q-101 0 -216 -71q-133 -83 -199 -211
q-32 -62 -32 -110q0 -89 112 -89q13 0 42 3q8 1 15 1q13 0 23 -6q97 206 117.5 252.5t49.5 131.5q23 63 63 63q17 0 29 -12q13 -13 13 -35q0 -27 -33 -105q-11 -25 -133 -297q-142 -304 -228 -572q-43 -133 -71 -249q-13 -57 -57 -298q-11 -57 -48 -57q-42 0 -42 68
q0 42 31 200q30 154 76 315q50 170 108 305l74 171l5 14q-14 -2 -24 -2q-101 0 -157 82q-40 59 -40 119q0 94 60 200q85 150 247 233q114 59 217 59q109 0 202 -78q49 -42 76 -87q15 -26 15 -43q0 -12 -9 -21q-11 -11 -26 -11q-32 0 -88 49z" />
    <glyph glyph-name="middot" unicode="&#xb7;" horiz-adv-x="423" 
d="M186 571q22 0 37 -20q10 -13 10 -33q0 -47 -26 -98q-28 -56 -71 -56q-46 0 -46 52t32 106q28 49 64 49z" />
    <glyph glyph-name="cedilla" unicode="&#xb8;" horiz-adv-x="1024" 
d="M302 -16q41 -13 58 -23q34 -19 34 -60q0 -48 -41 -83q-38 -33 -102 -33q-68 0 -110 32q-28 22 -28 47q0 29 23 29q8 0 21 -9q49 -33 87 -33q27 0 48 14q17 11 17 26q0 17 -21 28q-13 7 -30 8q-39 1 -46 4q-13 8 -13 23q0 13 21 49l24 44q13 23 24.5 29t42.5 6
q36 0 36 -14q0 -7 -8 -21z" />
    <glyph glyph-name="onesuperior" unicode="&#xb9;" horiz-adv-x="461" 
d="M476 1040q-97 -61 -131 -61q-26 0 -26 37q0 26 33 39q54 22 158 86q50 30 72 30q16 0 28 -15q8 -10 8 -22q0 -17 -25 -54q-176 -274 -244 -433q-29 -68 -53 -68q-15 0 -27 16q-8 10 -8 21q0 30 68 162q68 134 147 262z" />
    <glyph glyph-name="ordmasculine" unicode="&#xba;" horiz-adv-x="512" 
d="M403 1025q59 0 59 -69q0 -105 -106 -253q-70 -99 -139 -99q-34 0 -54 25q-18 22 -18 56q0 80 57 175q52 88 123 136q43 29 78 29zM330 782q-15 12 -15 22q0 7 9 16q68 75 68 110q0 14 -12 14q-32 0 -95 -82q-42 -54 -59 -115q-6 -22 -6 -34q0 -25 20 -25q21 0 48 29
q19 19 31 42q12 22 11 23zM233 505q22 0 52 -1q66 -2 86 -3q47 0 62 -7q14 -8 14 -28q0 -36 -33 -36q-7 0 -25 1q-30 3 -157 3q-77 0 -115 -7q-19 -3 -29 -3q-20 0 -31 16q-6 8 -6 20q0 38 66 43q36 2 116 2z" />
    <glyph glyph-name="guillemotright" unicode="&#xbb;" horiz-adv-x="565" 
d="M336 604q42 0 76 -72q31 -67 31 -104q0 -51 -73 -126q-59 -60 -96 -60q-21 0 -37 16q-16 17 -16 32q0 24 50 60q56 42 56 75q0 25 -24 67q-25 44 -25 55q0 21 17 39q19 18 41 18zM114 604q42 0 76 -72q31 -67 31 -104q0 -51 -73 -126q-59 -60 -95 -60q-21 0 -37 16
q-16 17 -16 32q0 24 49 60q56 42 56 75q0 25 -24 67q-25 44 -25 55q0 21 17 39q19 18 41 18z" />
    <glyph glyph-name="onequarter" unicode="&#xbc;" horiz-adv-x="1249" 
d="M475 1040q-97 -61 -131 -61q-26 0 -26 37q0 26 33 39q54 22 158 86q50 30 72 30q16 0 28 -15q8 -10 8 -22q0 -17 -25 -54q-175 -274 -244 -433q-29 -68 -53 -68q-15 0 -28 16q-7 10 -7 21q0 30 68 162q69 135 147 262zM1135 1194q18 0 31 -16q11 -13 11 -27
q0 -83 -382 -474q-241 -249 -341 -388q-92 -128 -165 -257q-27 -47 -62 -47q-14 0 -26 10q-13 13 -13 29q0 27 66 132q74 117 251 330q65 78 261 282q162 166 271 326q43 65 56 78q21 22 42 22zM963 273q-5 -11 -35 -70q-46 -109 -57 -146q-12 -40 -42 -40q-18 0 -30 13
q-10 11 -10 26q0 44 77 206q-74 -8 -125 -28q-19 -7 -30 -7q-31 0 -31 44q0 25 19 47q78 87 209 202q143 123 194 123q17 0 30 -14q11 -11 11 -25q0 -18 -59 -110q-44 -70 -82 -144q37 2 45 2q43 0 43 -33q0 -27 -23 -39q-10 -5 -57 -5q-18 0 -47 -2zM907 341
q62 114 108 182q-50 -31 -127 -104q-62 -60 -91 -94q62 12 110 16z" />
    <glyph glyph-name="onehalf" unicode="&#xbd;" horiz-adv-x="1249" 
d="M475 1040q-97 -61 -131 -61q-26 0 -26 37q0 26 33 39q54 22 158 86q50 30 72 30q16 0 28 -15q8 -10 8 -22q0 -17 -25 -54q-175 -274 -244 -433q-29 -68 -53 -68q-15 0 -28 16q-7 10 -7 21q0 30 68 162q69 135 147 262zM1135 1194q18 0 31 -16q11 -13 11 -27
q0 -83 -382 -474q-241 -249 -341 -388q-92 -128 -165 -257q-27 -47 -62 -47q-14 0 -26 10q-13 13 -13 29q0 27 66 132q74 117 251 330q65 78 261 282q162 166 271 326q43 65 56 78q21 22 42 22zM723 113q92 25 167 25q35 0 58 -15q22 -14 22 -35q0 -14 -10 -25
q-11 -11 -25 -11q-5 0 -29 7q-14 4 -38 4q-27 0 -56 -4q-10 -1 -84 -21q-68 -18 -80 -18q-20 0 -35 18q-13 17 -13 35q0 21 34 53q107 102 246 201q89 63 122 91q47 41 47 80q0 21 -11 31.5t-33 10.5q-54 0 -126 -58q-36 -28 -47 -28q-9 0 -18 9q-11 9 -11 22q0 25 56 65
q88 64 167 64q47 0 79 -30q31 -28 31 -68q0 -70 -72 -137q-28 -27 -110 -85q-128 -90 -231 -181z" />
    <glyph glyph-name="threequarters" unicode="&#xbe;" horiz-adv-x="1249" 
d="M506 935q52 -25 52 -89q0 -99 -86 -190q-85 -90 -176 -90q-58 0 -94 46q-26 33 -26 74q0 70 58 70q35 0 35 -29q0 -5 -1 -13t-1 -19q0 -52 45 -52q48 0 106 68q55 64 55 122q0 62 -52 62q-12 0 -23 -3q-16 -5 -24 -5q-24 0 -24 30q0 40 53 54q122 31 122 91
q0 14 -7.5 20.5t-23.5 6.5q-41 0 -108 -40q-11 -7 -24 -7q-27 0 -27 29q0 23 33 46q73 50 143 50q44 0 73 -26q33 -27 33 -67q0 -85 -111 -139zM1135 1194q18 0 31 -16q11 -13 11 -27q0 -83 -382 -474q-243 -251 -341 -388q-92 -129 -165 -257q-27 -47 -62 -47q-14 0 -26 10
q-13 13 -13 29q0 27 66 132q73 116 251 330q63 76 261 282q162 166 271 326q43 65 56 78q21 22 42 22zM963 273q-5 -11 -34 -70q-47 -110 -58 -146q-12 -40 -42 -40q-18 0 -30 13q-10 11 -10 26q0 44 77 206q-74 -8 -125 -28q-19 -7 -30 -7q-31 0 -31 44q0 25 19 47
q77 87 210 202q142 123 193 123q17 0 30 -14q11 -11 11 -25q0 -18 -59 -110q-44 -70 -82 -144q37 2 45 2q43 0 43 -33q0 -27 -23 -39q-10 -5 -57 -5q-17 0 -47 -2zM908 341q61 114 107 182q-50 -31 -127 -104q-62 -60 -91 -94q62 12 111 16z" />
    <glyph glyph-name="questiondown" unicode="&#xbf;" horiz-adv-x="750" 
d="M175 -341q16 0 27 -12q11 -11 11 -25q0 -64 -120 -162q-161 -130 -320 -130q-80 0 -140 48q-66 52 -66 136q0 94 95 197q72 79 226 191q120 87 155 121q75 71 116 145q22 47 43 89q24 49 67 49q45 0 45 -40q0 -47 -79 -173q-59 -92 -178 -187q-71 -56 -153 -113
q-136 -96 -172 -131q-78 -80 -78 -156q0 -47 38 -73q28 -19 64 -19q150 0 332 184q61 61 87 61zM366 724q46 0 46 -53q0 -50 -32 -105q-28 -49 -65 -49q-21 0 -36 20q-10 13 -10 33q0 48 26 98q28 56 71 56z" />
    <glyph glyph-name="Agrave" unicode="&#xc0;" horiz-adv-x="911" 
d="M649 630q-227 -45 -380 -106q-92 -135 -202 -324l-53 -93q-14 -25 -43 -72q-32 -55 -67 -55q-19 0 -32 15q-13 13 -13 29q0 28 75 159q41 71 124 201q32 50 51 82q-60 -17 -110 -39q-24 -11 -40 -11q-20 0 -31 18q-8 11 -8 26q0 34 24 48q39 24 140 55q75 24 119 44
q21 26 110 153q38 55 216 260q128 150 264 279q79 76 121 76q26 0 45 -21q16 -19 16 -42q0 -28 -28 -98q-48 -123 -92 -263q-38 -124 -51 -190q18 0 24 1q29 1 48 1q58 0 58 -44q0 -19 -12.5 -37.5t-28.5 -22.5q-6 -2 -33 -2q-57 0 -85 -7q-24 -71 -76 -363
q-27 -194 -26 -238q0 -72 -43 -72q-34 0 -53 35q-14 24 -14 65q0 138 49 372q25 118 37 181zM677 738q9 29 46 155q9 33 46 131q37 101 59 162q-65 -43 -132 -114q-236 -254 -333 -415q37 9 159 45q35 10 155 36zM967 1733q26 0 56 -43q10 -15 45 -61q35 -45 47 -58
q37 -45 37 -69q0 -35 -31 -35q-24 0 -57 37q-138 155 -138 193q0 13 11 23q12 13 30 13z" />
    <glyph glyph-name="Aacute" unicode="&#xc1;" horiz-adv-x="911" 
d="M649 630q-227 -45 -380 -106q-92 -135 -202 -324l-53 -93q-14 -25 -43 -72q-32 -55 -67 -55q-19 0 -32 15q-13 13 -13 29q0 28 75 159q41 71 124 201q32 50 51 82q-60 -17 -110 -39q-24 -11 -40 -11q-20 0 -31 18q-8 11 -8 26q0 34 24 48q39 24 140 55q75 24 119 44
q21 26 110 153q38 55 216 260q128 150 264 279q79 76 121 76q26 0 45 -21q16 -19 16 -42q0 -28 -28 -98q-48 -123 -92 -263q-38 -124 -51 -190q18 0 24 1q29 1 48 1q58 0 58 -44q0 -19 -12.5 -37.5t-28.5 -22.5q-6 -2 -33 -2q-57 0 -85 -7q-24 -71 -76 -363
q-27 -194 -26 -238q0 -72 -43 -72q-34 0 -53 35q-14 24 -14 65q0 138 49 372q25 118 37 181zM677 738q9 29 46 155q9 33 46 131q37 101 59 162q-65 -43 -132 -114q-236 -254 -333 -415q37 9 159 45q35 10 155 36zM1154 1733q17 0 28 -13q11 -11 11 -23q0 -25 -90 -136
q-47 -58 -66 -75q-21 -19 -39 -19q-31 0 -31 35q0 24 38 69q28 29 91 119q31 43 58 43z" />
    <glyph glyph-name="Acircumflex" unicode="&#xc2;" horiz-adv-x="911" 
d="M649 630q-227 -45 -380 -106q-92 -135 -202 -324l-53 -93q-14 -25 -43 -72q-32 -55 -67 -55q-19 0 -32 15q-13 13 -13 29q0 28 75 159q41 71 124 201q32 50 51 82q-60 -17 -110 -39q-24 -11 -40 -11q-20 0 -31 18q-8 11 -8 26q0 34 24 48q39 24 140 55q75 24 119 44
q21 26 110 153q38 55 216 260q128 150 264 279q79 76 121 76q26 0 45 -21q16 -19 16 -42q0 -28 -28 -98q-48 -123 -92 -263q-38 -124 -51 -190q18 0 24 1q29 1 48 1q58 0 58 -44q0 -19 -12.5 -37.5t-28.5 -22.5q-6 -2 -33 -2q-57 0 -85 -7q-24 -71 -76 -363
q-27 -194 -26 -238q0 -72 -43 -72q-34 0 -53 35q-14 24 -14 65q0 138 49 372q25 118 37 181zM677 738q9 29 46 155q9 33 46 131q37 101 59 162q-65 -43 -132 -114q-236 -254 -333 -415q37 9 159 45q35 10 155 36zM944 1665q34 0 84 -63q51 -64 51 -98q0 -13 -14 -27
q-12 -12 -28 -12q-26 0 -59 44q-40 53 -63 53q-7 0 -24 -8q-16 -7 -62 -22q-33 -10 -45 -10q-16 0 -28 14q-9 10 -9 24q0 25 33 43q38 22 88 41q57 21 76 21z" />
    <glyph glyph-name="Atilde" unicode="&#xc3;" horiz-adv-x="911" 
d="M649 630q-227 -45 -380 -106q-92 -135 -202 -324l-53 -93q-14 -25 -43 -72q-32 -55 -67 -55q-19 0 -32 15q-13 13 -13 29q0 28 75 159q41 71 124 201q32 50 51 82q-60 -17 -110 -39q-24 -11 -40 -11q-20 0 -31 18q-8 11 -8 26q0 34 24 48q39 24 140 55q75 24 119 44
q21 26 110 153q38 55 216 260q128 150 264 279q79 76 121 76q26 0 45 -21q16 -19 16 -42q0 -28 -28 -98q-48 -123 -92 -263q-38 -124 -51 -190q18 0 24 1q29 1 48 1q58 0 58 -44q0 -19 -12.5 -37.5t-28.5 -22.5q-6 -2 -33 -2q-57 0 -85 -7q-24 -71 -76 -363
q-27 -194 -26 -238q0 -72 -43 -72q-34 0 -53 35q-14 24 -14 65q0 138 49 372q25 118 37 181zM677 738q9 29 46 155q9 33 46 131q37 101 59 162q-65 -43 -132 -114q-236 -254 -333 -415q37 9 159 45q35 10 155 36zM791 1664q62 0 221 -30q24 -5 56 -5q71 0 147 23q16 5 26 5
q18 0 29 -17q6 -10 6 -21q0 -38 -46 -59q-63 -30 -135 -30q-70 0 -218 26q-23 4 -66 4q-19 0 -30 -1q-56 -8 -58 -8q-16 0 -30 14t-14 35q0 64 112 64z" />
    <glyph glyph-name="Adieresis" unicode="&#xc4;" horiz-adv-x="911" 
d="M649 630q-227 -45 -380 -106q-92 -135 -202 -324l-53 -93q-14 -25 -43 -72q-32 -55 -67 -55q-19 0 -32 15q-13 13 -13 29q0 28 75 159q41 71 124 201q32 50 51 82q-60 -17 -110 -39q-24 -11 -40 -11q-20 0 -31 18q-8 11 -8 26q0 34 24 48q39 24 140 55q75 24 119 44
q21 26 110 153q38 55 216 260q128 150 264 279q79 76 121 76q26 0 45 -21q16 -19 16 -42q0 -28 -28 -98q-48 -123 -92 -263q-38 -124 -51 -190q18 0 24 1q29 1 48 1q58 0 58 -44q0 -19 -12.5 -37.5t-28.5 -22.5q-6 -2 -33 -2q-57 0 -85 -7q-24 -71 -76 -363
q-27 -194 -26 -238q0 -72 -43 -72q-34 0 -53 35q-14 24 -14 65q0 138 49 372q25 118 37 181zM677 738q9 29 46 155q9 33 46 131q37 101 59 162q-65 -43 -132 -114q-236 -254 -333 -415q37 9 159 45q35 10 155 36zM1009 1695q21 0 33 -14q12 -13 12 -32q0 -42 -44 -93
q-42 -49 -81 -49q-19 0 -32 14q-11 13 -11 33q0 47 53 101q39 40 70 40zM1218 1695q21 0 33 -14q12 -13 12 -32q0 -42 -44 -93q-42 -49 -81 -49q-19 0 -31 14q-12 13 -12 33q0 47 53 101q39 40 70 40z" />
    <glyph glyph-name="Aring" unicode="&#xc5;" horiz-adv-x="911" 
d="M649 630q-227 -45 -380 -106q-92 -135 -202 -324l-53 -93q-14 -25 -43 -72q-32 -55 -67 -55q-19 0 -32 15q-13 13 -13 29q0 28 75 159q41 71 124 201q32 50 51 82q-60 -17 -110 -39q-24 -11 -40 -11q-20 0 -31 18q-8 11 -8 26q0 34 24 48q39 24 140 55q75 24 119 44
q21 26 110 153q38 55 216 260q128 150 264 279q79 76 121 76q26 0 45 -21q16 -19 16 -42q0 -28 -28 -98q-48 -123 -92 -263q-38 -124 -51 -190q18 0 24 1q29 1 48 1q58 0 58 -44q0 -19 -12.5 -37.5t-28.5 -22.5q-6 -2 -33 -2q-57 0 -85 -7q-24 -71 -76 -363
q-27 -194 -26 -238q0 -72 -43 -72q-34 0 -53 35q-14 24 -14 65q0 138 49 372q25 118 37 181zM677 738q9 29 46 155q9 33 46 131q37 101 59 162q-65 -43 -132 -114q-236 -254 -333 -415q37 9 159 45q35 10 155 36zM1215 1727q30 0 51 -21t21 -51q0 -70 -78 -150
q-66 -68 -120 -68q-36 0 -57 31q-14 20 -14 44q0 75 79 152q65 63 118 63zM1189 1657q-20 0 -53 -31q-54 -50 -54 -95q0 -14 6 -21t17 -7q33 0 71 43q42 47 42 85q0 13 -7 19.5t-22 6.5z" />
    <glyph glyph-name="AE" unicode="&#xc6;" horiz-adv-x="1302" 
d="M744 685q-36 -7 -206 -43q-31 -7 -141 -21q-237 -260 -438 -531q-43 -60 -78 -60q-21 0 -33 17q-9 13 -9 30q0 31 41 86q147 199 357 438q-101 -4 -121 -4q-22 0 -36 9q-16 11 -16 26q0 32 37 52q17 10 70 14q5 1 70 5q72 5 101 7q308 317 503 457q-43 25 -43 59
q0 39 83 60q118 30 371 65q85 12 243 27q101 9 134 9q64 0 64 -44q0 -22 -13 -39q-16 -23 -42 -23l-39 1q-76 0 -198 -14q-168 -20 -254 -40q17 -19 17 -33q0 -16 -51 -92q-90 -142 -116 -185q-27 -45 -47 -93q214 38 345 38q51 0 51 -35q0 -16 -12 -32.5t-30 -23.5
q-20 -9 -121 -17q-229 -25 -308 -45q-188 -350 -249 -543q166 55 220 70q158 44 258 44q64 0 64 -52q0 -33 -33 -45q-17 -6 -66 -11q-106 -10 -224 -42q-119 -33 -222 -84q-39 -20 -64 -20q-29 0 -51 27q-18 23 -18 48q0 69 123 334q35 77 127 249zM804 797q42 83 118 197
q96 142 128 192q-155 -96 -310 -233q-174 -151 -230 -219q47 8 150 34q11 2 98 19q11 3 46 10z" />
    <glyph glyph-name="Ccedilla" unicode="&#xc7;" horiz-adv-x="856" 
d="M161 -29q-47 11 -78 34q-56 42 -81 115q-17 50 -17 94q0 219 205 552q170 275 367 451q166 147 293 147q60 0 96 -48q29 -38 29 -92q0 -97 -66 -221q-57 -108 -141 -192q-56 -55 -88 -55q-21 0 -39 21q-13 15 -13 34q0 35 61 80q85 64 137 140q75 109 75 186q0 61 -54 61
t-156 -80q-116 -90 -243 -245q-164 -197 -248 -388q-88 -197 -88 -338q0 -67 39 -114q43 -53 105 -53q108 0 272 168q49 51 119 148q46 62 59 88q15 29 35 29q22 0 22 -21q0 -29 -49 -109q-124 -201 -268 -307q-104 -77 -192 -88l-38 -66q41 -14 57 -23q34 -19 34 -60
q0 -48 -41 -83q-39 -33 -102 -33q-68 0 -110 32q-28 22 -28 47q0 29 23 29q8 0 22 -9q48 -33 86 -33q28 0 49 14q17 11 17 26q0 18 -21 28q-13 7 -30 7q-38 1 -45 5q-14 8 -14 22t20 50z" />
    <glyph glyph-name="Egrave" unicode="&#xc8;" horiz-adv-x="807" 
d="M427 818l40 7q221 42 308 42q63 0 63 -51q0 -32 -25 -43q-17 -8 -58 -10q-259 -16 -394 -61q-53 -79 -155 -295q-59 -126 -92 -233q23 8 45 16q148 50 218 65q93 18 175 18q54 0 80 -13q23 -11 23 -42t-28 -41q-13 -4 -62 -5q-265 -14 -472 -130q-27 -15 -46 -15
q-28 0 -50 29q-19 24 -19 49t63 184q95 241 259 528q49 87 186 293q31 48 60 94q-40 10 -40 53q0 32 32 47q52 24 200 47q221 34 375 34q87 0 87 -46q0 -32 -30 -54q-15 -11 -48 -11q-2 0 -23 1h-33q-72 0 -208 -15q-118 -13 -203 -38q10 -15 10 -24q0 -17 -47 -78l-48 -74
q-103 -152 -143 -228zM887 1733q26 0 56 -43q10 -15 45 -61q35 -45 47 -58q37 -45 37 -69q0 -35 -31 -35q-24 0 -57 37q-138 155 -138 193q0 13 11 23q12 13 30 13z" />
    <glyph glyph-name="Eacute" unicode="&#xc9;" horiz-adv-x="807" 
d="M427 818l40 7q221 42 308 42q63 0 63 -51q0 -32 -25 -43q-17 -8 -58 -10q-259 -16 -394 -61q-53 -79 -155 -295q-59 -126 -92 -233q23 8 45 16q148 50 218 65q93 18 175 18q54 0 80 -13q23 -11 23 -42t-28 -41q-13 -4 -62 -5q-265 -14 -472 -130q-27 -15 -46 -15
q-28 0 -50 29q-19 24 -19 49t63 184q95 241 259 528q49 87 186 293q31 48 60 94q-40 10 -40 53q0 32 32 47q52 24 200 47q221 34 375 34q87 0 87 -46q0 -32 -30 -54q-15 -11 -48 -11q-2 0 -23 1h-33q-72 0 -208 -15q-118 -13 -203 -38q10 -15 10 -24q0 -17 -47 -78l-48 -74
q-103 -152 -143 -228zM1088 1733q17 0 28 -13q11 -11 11 -23q0 -25 -90 -136q-47 -58 -66 -75q-21 -19 -39 -19q-31 0 -31 35q0 24 38 69q28 29 91 119q31 43 58 43z" />
    <glyph glyph-name="Ecircumflex" unicode="&#xca;" horiz-adv-x="807" 
d="M427 818l40 7q221 42 308 42q63 0 63 -51q0 -32 -25 -43q-17 -8 -58 -10q-259 -16 -394 -61q-53 -79 -155 -295q-59 -126 -92 -233q23 8 45 16q148 50 218 65q93 18 175 18q54 0 80 -13q23 -11 23 -42t-28 -41q-13 -4 -62 -5q-265 -14 -472 -130q-27 -15 -46 -15
q-28 0 -50 29q-19 24 -19 49t63 184q95 241 259 528q49 87 186 293q31 48 60 94q-40 10 -40 53q0 32 32 47q52 24 200 47q221 34 375 34q87 0 87 -46q0 -32 -30 -54q-15 -11 -48 -11q-2 0 -23 1h-33q-72 0 -208 -15q-118 -13 -203 -38q10 -15 10 -24q0 -17 -47 -78l-48 -74
q-103 -152 -143 -228zM864 1665q34 0 84 -63q51 -64 51 -98q0 -13 -14 -27q-12 -12 -28 -12q-26 0 -59 44q-40 53 -63 53q-7 0 -24 -8q-16 -7 -62 -22q-33 -10 -45 -10q-16 0 -28 14q-9 10 -9 24q0 25 33 43q38 22 88 41q57 21 76 21z" />
    <glyph glyph-name="Edieresis" unicode="&#xcb;" horiz-adv-x="807" 
d="M427 818l40 7q221 42 308 42q63 0 63 -51q0 -32 -25 -43q-17 -8 -58 -10q-259 -16 -394 -61q-53 -79 -155 -295q-59 -126 -92 -233q23 8 45 16q148 50 218 65q93 18 175 18q54 0 80 -13q23 -11 23 -42t-28 -41q-13 -4 -62 -5q-265 -14 -472 -130q-27 -15 -46 -15
q-28 0 -50 29q-19 24 -19 49t63 184q95 241 259 528q49 87 186 293q31 48 60 94q-40 10 -40 53q0 32 32 47q52 24 200 47q221 34 375 34q87 0 87 -46q0 -32 -30 -54q-15 -11 -48 -11q-2 0 -23 1h-33q-72 0 -208 -15q-118 -13 -203 -38q10 -15 10 -24q0 -17 -47 -78l-48 -74
q-103 -152 -143 -228zM943 1695q21 0 33 -14q12 -13 12 -32q0 -42 -44 -93q-42 -49 -81 -49q-19 0 -32 14q-11 13 -11 33q0 47 53 101q39 40 70 40zM1152 1695q21 0 33 -14q12 -13 12 -32q0 -42 -44 -93q-42 -49 -81 -49q-19 0 -31 14q-12 13 -12 33q0 47 53 101
q39 40 70 40z" />
    <glyph glyph-name="Igrave" unicode="&#xcc;" horiz-adv-x="462" 
d="M698 1353q16 0 31 -17q13 -15 13 -33q0 -25 -27 -68q-13 -21 -98 -139q-398 -548 -512 -989q-13 -71 -54 -71q-22 0 -39 21q-16 19 -16 43q0 50 48 185q110 312 394 746q116 178 189 267q47 55 71 55zM755 1733q26 0 56 -43q10 -15 45 -61q35 -45 47 -58q37 -45 37 -69
q0 -35 -31 -35q-24 0 -57 37q-138 155 -138 193q0 13 11 23q12 13 30 13z" />
    <glyph glyph-name="Iacute" unicode="&#xcd;" horiz-adv-x="462" 
d="M698 1353q16 0 31 -17q13 -15 13 -33q0 -25 -27 -68q-13 -21 -98 -139q-398 -548 -512 -989q-13 -71 -54 -71q-22 0 -39 21q-16 19 -16 43q0 50 48 185q110 312 394 746q116 178 189 267q47 55 71 55zM970 1733q17 0 28 -13q11 -11 11 -23q0 -25 -90 -136
q-47 -58 -66 -75q-21 -19 -39 -19q-31 0 -31 35q0 24 38 69q28 29 91 119q31 43 58 43z" />
    <glyph glyph-name="Icircumflex" unicode="&#xce;" horiz-adv-x="462" 
d="M698 1353q16 0 31 -17q13 -15 13 -33q0 -25 -27 -68q-13 -21 -98 -139q-398 -548 -512 -989q-13 -71 -54 -71q-22 0 -39 21q-16 19 -16 43q0 50 48 185q110 312 394 746q116 178 189 267q47 55 71 55zM732 1665q34 0 84 -63q51 -64 51 -98q0 -13 -14 -27q-12 -12 -28 -12
q-26 0 -59 44q-40 53 -63 53q-7 0 -24 -8q-16 -7 -62 -22q-33 -10 -45 -10q-16 0 -28 14q-9 10 -9 24q0 25 33 43q38 22 88 41q57 21 76 21z" />
    <glyph glyph-name="Idieresis" unicode="&#xcf;" horiz-adv-x="462" 
d="M698 1353q16 0 31 -17q13 -15 13 -33q0 -25 -27 -68q-13 -21 -98 -139q-398 -548 -512 -989q-13 -71 -54 -71q-22 0 -39 21q-16 19 -16 43q0 50 48 185q110 312 394 746q116 178 189 267q47 55 71 55zM766 1695q21 0 34 -14q11 -13 11 -32q0 -42 -43 -93q-43 -49 -81 -49
q-19 0 -32 14q-11 13 -11 32q0 48 53 102q39 40 69 40zM961 1695q21 0 34 -14q11 -14 11 -32q0 -42 -43 -93q-43 -49 -81 -49q-19 0 -32 14q-11 13 -11 32q0 48 53 102q39 40 69 40z" />
    <glyph glyph-name="Eth" unicode="&#xd0;" horiz-adv-x="944" 
d="M264 754q49 99 174 330l30 55q-26 -14 -51 -34q-43 -36 -64 -36q-16 0 -29 13q-14 14 -14 31q0 37 97 110q149 112 328 112q139 0 221 -91q74 -82 74 -197q0 -193 -142 -451q-166 -303 -432 -502q-197 -148 -350 -148q-60 0 -91 36q-25 29 -25 63q0 57 79 263
q59 157 151 355l3 6q-67 -1 -88 -6q-20 -4 -32 -4q-21 0 -34 19q-6 10 -6 23q0 38 42 47q20 4 127 6h16h16zM386 752q63 0 82 -1h82q49 -1 67 -10q16 -9 16 -33q0 -42 -35 -42q-10 0 -28 2q-31 2 -153 2l-51 1h-20q-91 -197 -138 -315q-87 -217 -87 -266q0 -40 38 -40
q64 0 172 69q134 85 297 285q147 180 232 382q66 157 66 277q0 86 -42 128.5t-126 42.5q-89 0 -196 -49q30 -15 30 -33q0 -13 -38 -82q-58 -102 -168 -318z" />
    <glyph glyph-name="Ntilde" unicode="&#xd1;" horiz-adv-x="1020" 
d="M583 226q83 247 196 471q89 175 239 439q111 195 146 233t72 38q32 0 32 -28q0 -15 -14 -39q-13 -23 -83 -135q-231 -376 -337 -618q-96 -217 -165 -425q-25 -75 -55 -111q-44 -54 -89 -54q-41 0 -52 59q-5 24 -5 92q0 239 47 531q42 256 85 411q-96 -106 -287 -444
q-151 -268 -226 -500q-31 -96 -45 -119q-26 -44 -67 -44q-17 0 -29 14q-10 12 -10 24q0 38 65 201q84 212 279 542q116 197 276 419q76 106 113 137q34 28 64 28q13 0 23 -8q14 -11 14 -27q0 -20 -10 -45q-48 -123 -99 -341q-81 -351 -81 -597q0 -34 3 -104zM846 1664
q62 0 221 -30q24 -5 56 -5q71 0 147 23q16 5 26 5q18 0 29 -17q6 -10 6 -21q0 -38 -46 -59q-63 -30 -135 -30q-70 0 -218 26q-23 4 -66 4q-19 0 -30 -1q-56 -8 -58 -8q-16 0 -30 14t-14 35q0 64 112 64z" />
    <glyph glyph-name="Ograve" unicode="&#xd2;" horiz-adv-x="913" 
d="M623 1239q-74 -13 -176 -69q-22 -12 -35 -12q-14 0 -28 14q-14 15 -14 36q0 24 25 42q61 44 151 74q109 37 204 37q121 0 197 -83q69 -74 69 -183q0 -180 -146 -437q-158 -275 -385 -494q-192 -185 -330 -185q-81 0 -131 74q-38 58 -38 134q0 187 130 434
q174 331 507 618zM675 1250q17 -20 17 -35q0 -13 -54 -73q-220 -236 -326 -393q-110 -162 -168 -325q-41 -118 -41 -209q0 -45 18 -75q23 -37 67 -37q93 0 249 156q198 198 323 411q141 242 141 413q0 80 -52 131q-40 39 -109 39zM940 1733q26 0 56 -43q10 -15 45 -61
q35 -45 47 -58q37 -45 37 -69q0 -35 -31 -35q-24 0 -57 37q-138 155 -138 193q0 13 11 23q12 13 30 13z" />
    <glyph glyph-name="Oacute" unicode="&#xd3;" horiz-adv-x="913" 
d="M623 1239q-74 -13 -176 -69q-22 -12 -35 -12q-14 0 -28 14q-14 15 -14 36q0 24 25 42q61 44 151 74q109 37 204 37q121 0 197 -83q69 -74 69 -183q0 -180 -146 -437q-158 -275 -385 -494q-192 -185 -330 -185q-81 0 -131 74q-38 58 -38 134q0 187 130 434
q174 331 507 618zM675 1250q17 -20 17 -35q0 -13 -54 -73q-220 -236 -326 -393q-110 -162 -168 -325q-41 -118 -41 -209q0 -45 18 -75q23 -37 67 -37q93 0 249 156q198 198 323 411q141 242 141 413q0 80 -52 131q-40 39 -109 39zM1141 1733q17 0 28 -13q11 -11 11 -23
q0 -25 -90 -136q-47 -58 -66 -75q-21 -19 -39 -19q-31 0 -31 35q0 24 38 69q28 29 91 119q31 43 58 43z" />
    <glyph glyph-name="Ocircumflex" unicode="&#xd4;" horiz-adv-x="913" 
d="M623 1239q-74 -13 -176 -69q-22 -12 -35 -12q-14 0 -28 14q-14 15 -14 36q0 24 25 42q61 44 151 74q109 37 204 37q121 0 197 -83q69 -74 69 -183q0 -180 -146 -437q-158 -275 -385 -494q-192 -185 -330 -185q-81 0 -131 74q-38 58 -38 134q0 187 130 434
q174 331 507 618zM675 1250q17 -20 17 -35q0 -13 -54 -73q-220 -236 -326 -393q-110 -162 -168 -325q-41 -118 -41 -209q0 -45 18 -75q23 -37 67 -37q93 0 249 156q198 198 323 411q141 242 141 413q0 80 -52 131q-40 39 -109 39zM835 1665q34 0 84 -63q51 -64 51 -98
q0 -13 -14 -27q-12 -12 -28 -12q-26 0 -59 44q-40 53 -63 53q-7 0 -24 -8q-16 -7 -62 -22q-33 -10 -45 -10q-16 0 -28 14q-9 10 -9 24q0 25 33 43q38 22 88 41q57 21 76 21z" />
    <glyph glyph-name="Otilde" unicode="&#xd5;" horiz-adv-x="913" 
d="M623 1239q-74 -13 -176 -69q-22 -12 -35 -12q-14 0 -28 14q-14 15 -14 36q0 24 25 42q61 44 151 74q109 37 204 37q121 0 197 -83q69 -74 69 -183q0 -180 -146 -437q-158 -275 -385 -494q-192 -185 -330 -185q-81 0 -131 74q-38 58 -38 134q0 187 130 434
q174 331 507 618zM675 1250q17 -20 17 -35q0 -13 -54 -73q-220 -236 -326 -393q-110 -162 -168 -325q-41 -118 -41 -209q0 -45 18 -75q23 -37 67 -37q93 0 249 156q198 198 323 411q141 242 141 413q0 80 -52 131q-40 39 -109 39zM738 1664q62 0 221 -30q24 -5 56 -5
q71 0 147 23q16 5 26 5q18 0 29 -17q6 -10 6 -21q0 -38 -46 -59q-63 -30 -135 -30q-70 0 -218 26q-23 4 -66 4q-19 0 -30 -1q-56 -8 -58 -8q-16 0 -30 14t-14 35q0 64 112 64z" />
    <glyph glyph-name="Odieresis" unicode="&#xd6;" horiz-adv-x="913" 
d="M623 1239q-74 -13 -176 -69q-22 -12 -35 -12q-14 0 -28 14q-14 15 -14 36q0 24 25 42q61 44 151 74q109 37 204 37q121 0 197 -83q69 -74 69 -183q0 -180 -146 -437q-158 -275 -385 -494q-192 -185 -330 -185q-81 0 -131 74q-38 58 -38 134q0 187 130 434
q174 331 507 618zM675 1250q17 -20 17 -35q0 -13 -54 -73q-220 -236 -326 -393q-110 -162 -168 -325q-41 -118 -41 -209q0 -45 18 -75q23 -37 67 -37q93 0 249 156q198 198 323 411q141 242 141 413q0 80 -52 131q-40 39 -109 39zM996 1695q21 0 33 -14q12 -13 12 -32
q0 -42 -44 -93q-42 -49 -81 -49q-19 0 -32 14q-11 13 -11 33q0 47 53 101q39 40 70 40zM1205 1695q21 0 33 -14q12 -13 12 -32q0 -42 -44 -93q-42 -49 -81 -49q-19 0 -31 14q-12 13 -12 33q0 47 53 101q39 40 70 40z" />
    <glyph glyph-name="multiply" unicode="&#xd7;" 
d="M328 636q191 187 226 187q9 0 16 -5q21 -12 21 -34q0 -39 -96 -123q-70 -63 -129 -121q7 -17 14 -33q11 -26 14 -33q32 -82 44 -102q19 -33 19 -52q0 -17 -21 -32q-17 -12 -29 -12q-35 0 -69 85q-30 70 -45 104q-61 -64 -92 -99q-53 -58 -68 -71q-22 -17 -37 -17
q-23 0 -23 43q0 31 26 65q35 48 154 173q-67 171 -67 202q0 29 20 45q15 11 33 11q19 0 33 -14q13 -13 22 -57q8 -31 34 -110z" />
    <glyph glyph-name="Oslash" unicode="&#xd8;" horiz-adv-x="914" 
d="M918 1306q37 52 50 66q32 38 56 38q10 0 20 -9q12 -11 12 -24q0 -17 -38 -67q-35 -47 -46 -62q48 -73 48 -144q0 -225 -217 -557q-106 -162 -231 -296.5t-236 -206.5q-87 -56 -166 -66q-25 -41 -35 -62q-23 -49 -50 -49q-33 0 -33 33q0 20 19 60q11 23 17 37
q-48 28 -68 62q-31 53 -31 126q0 194 125 432q106 202 296 413q74 81 211 209q-56 -8 -173 -66q-23 -12 -35 -12q-11 0 -24 11q-17 14 -17 36q0 23 25 41q62 43 152 74q107 37 203 37q83 0 166 -54zM851 1219q-51 36 -115 36q-22 0 -57 -3q14 -25 14 -38q0 -12 -55 -71
q-221 -235 -326 -394q-109 -163 -167 -325q-40 -110 -40 -205q0 -52 17 -77q7 -10 31 -27q209 380 546 877q113 165 152 227zM248 116q55 23 100 61q222 184 391 452q106 169 147 325q19 71 19 120q0 24 -9 67q-188 -276 -350 -521q-39 -58 -215 -355q-53 -89 -83 -149z" />
    <glyph glyph-name="Ugrave" unicode="&#xd9;" horiz-adv-x="1065" 
d="M928 873q-90 -106 -375 -492q-119 -161 -223 -271q-117 -123 -196 -123q-54 0 -88 59q-23 41 -23 98q0 182 160 498q156 305 407 594q104 120 145 120q13 0 26 -11q18 -15 18 -37q0 -29 -48 -77q-11 -11 -156 -181q-186 -218 -327 -508q-60 -124 -94 -241
q-24 -80 -24 -127q0 -20 9 -36q12 -19 33 -19q39 0 112 83q184 211 601 757q105 138 237 288q36 41 57 59q21 19 49 19q19 0 33 -15q13 -13 13 -30q0 -25 -45 -92q-228 -342 -358 -651q-129 -306 -135 -454q-2 -53 -7 -65q-8 -18 -29 -18q-31 0 -53 27q-16 21 -16 50
q0 67 35 200q43 165 140 366q6 11 122 230zM1016 1733q26 0 56 -43q10 -15 45 -61q35 -45 47 -58q37 -45 37 -69q0 -35 -31 -35q-24 0 -57 37q-138 155 -138 193q0 13 11 23q12 13 30 13z" />
    <glyph glyph-name="Uacute" unicode="&#xda;" horiz-adv-x="1065" 
d="M928 873q-90 -106 -375 -492q-119 -161 -223 -271q-117 -123 -196 -123q-54 0 -88 59q-23 41 -23 98q0 182 160 498q156 305 407 594q104 120 145 120q13 0 26 -11q18 -15 18 -37q0 -29 -48 -77q-11 -11 -156 -181q-186 -218 -327 -508q-60 -124 -94 -241
q-24 -80 -24 -127q0 -20 9 -36q12 -19 33 -19q39 0 112 83q184 211 601 757q105 138 237 288q36 41 57 59q21 19 49 19q19 0 33 -15q13 -13 13 -30q0 -25 -45 -92q-228 -342 -358 -651q-129 -306 -135 -454q-2 -53 -7 -65q-8 -18 -29 -18q-31 0 -53 27q-16 21 -16 50
q0 67 35 200q43 165 140 366q6 11 122 230zM1217 1733q17 0 28 -13q11 -11 11 -23q0 -25 -90 -136q-47 -58 -66 -75q-21 -19 -39 -19q-31 0 -31 35q0 24 38 69q28 29 91 119q31 43 58 43z" />
    <glyph glyph-name="Ucircumflex" unicode="&#xdb;" horiz-adv-x="1065" 
d="M928 873q-90 -106 -375 -492q-119 -161 -223 -271q-117 -123 -196 -123q-54 0 -88 59q-23 41 -23 98q0 182 160 498q156 305 407 594q104 120 145 120q13 0 26 -11q18 -15 18 -37q0 -29 -48 -77q-11 -11 -156 -181q-186 -218 -327 -508q-60 -124 -94 -241
q-24 -80 -24 -127q0 -20 9 -36q12 -19 33 -19q39 0 112 83q184 211 601 757q105 138 237 288q36 41 57 59q21 19 49 19q19 0 33 -15q13 -13 13 -30q0 -25 -45 -92q-228 -342 -358 -651q-129 -306 -135 -454q-2 -53 -7 -65q-8 -18 -29 -18q-31 0 -53 27q-16 21 -16 50
q0 67 35 200q43 165 140 366q6 11 122 230zM993 1665q34 0 84 -63q51 -64 51 -98q0 -13 -14 -27q-12 -12 -28 -12q-26 0 -59 44q-40 53 -63 53q-7 0 -24 -8q-16 -7 -62 -22q-33 -10 -45 -10q-16 0 -28 14q-9 10 -9 24q0 25 33 43q38 22 88 41q57 21 76 21z" />
    <glyph glyph-name="Udieresis" unicode="&#xdc;" horiz-adv-x="1065" 
d="M928 873q-90 -106 -375 -492q-119 -161 -223 -271q-117 -123 -196 -123q-54 0 -88 59q-23 41 -23 98q0 182 160 498q156 305 407 594q104 120 145 120q13 0 26 -11q18 -15 18 -37q0 -29 -48 -77q-11 -11 -156 -181q-186 -218 -327 -508q-60 -124 -94 -241
q-24 -80 -24 -127q0 -20 9 -36q12 -19 33 -19q39 0 112 83q184 211 601 757q105 138 237 288q36 41 57 59q21 19 49 19q19 0 33 -15q13 -13 13 -30q0 -25 -45 -92q-228 -342 -358 -651q-129 -306 -135 -454q-2 -53 -7 -65q-8 -18 -29 -18q-31 0 -53 27q-16 21 -16 50
q0 67 35 200q43 165 140 366q6 11 122 230zM1072 1695q21 0 33 -14q12 -13 12 -32q0 -42 -44 -93q-42 -49 -81 -49q-19 0 -32 14q-11 13 -11 33q0 47 53 101q39 40 70 40zM1281 1695q21 0 33 -14q12 -13 12 -32q0 -42 -44 -93q-42 -49 -81 -49q-19 0 -31 14q-12 13 -12 33
q0 47 53 101q39 40 70 40z" />
    <glyph glyph-name="Yacute" unicode="&#xdd;" horiz-adv-x="844" 
d="M633 730q-79 -77 -192 -178q-64 -57 -114 -92q-52 -38 -109 -38t-87 60q-16 32 -16 69q0 126 102 313q91 167 251 324q159 157 225 157q16 0 28 -12q11 -12 11 -29q0 -28 -20 -46q-16 -14 -47 -33q-56 -35 -139 -116q-132 -130 -210 -281q-86 -167 -86 -236q0 -15 9 -27
q12 -17 32 -17q38 0 130 73q110 85 178 159q198 214 297 347q95 129 160 206q55 65 85 65q20 0 34 -20q11 -16 11 -37q0 -35 -38 -84q-271 -356 -359 -485q-133 -198 -231 -411q-113 -242 -137 -323q-23 -75 -43 -95t-45 -20q-47 0 -47 45q0 49 63 200q74 179 181 356
q91 150 123 206zM1106 1733q17 0 28 -13q11 -11 11 -23q0 -25 -90 -136q-47 -58 -66 -75q-21 -19 -39 -19q-31 0 -31 35q0 24 38 69q28 29 91 119q31 43 58 43z" />
    <glyph glyph-name="Thorn" unicode="&#xde;" horiz-adv-x="901" 
d="M275 385q-48 -85 -74 -139q-37 -68 -78 -196q-21 -67 -55 -67q-24 0 -41 22q-15 19 -15 41q0 49 70 201q25 54 56 110q20 36 33 61q-40 30 -40 60q0 23 20 40q17 14 37 14q14 0 37 -7q35 62 115 227q50 105 76 168q-25 -14 -64 -40q-21 -14 -39 -14q-19 0 -31 19
q-8 13 -8 27q0 47 78 100q62 42 117 72q28 84 49 151q22 72 38 93q19 25 48 25q40 0 40 -43q0 -26 -16 -80q-23 -75 -29 -97q129 37 202 37q97 0 164 -74q63 -70 63 -157q0 -151 -126 -301q-110 -131 -268 -200q-136 -60 -284 -60q-36 0 -75 7zM555 995q-33 -99 -108 -254
q-92 -187 -119 -246q53 -9 75 -9q117 0 268 92q146 89 230 223q51 80 51 143q0 57 -38.5 85.5t-116.5 28.5q-118 0 -242 -63z" />
    <glyph glyph-name="germandbls" unicode="&#xdf;" horiz-adv-x="564" 
d="M354 561q47 21 70 21q12 0 22 -7q15 -11 15 -30q0 -27 -24 -40q-37 -21 -50 -31q31 -84 31 -150q0 -101 -54 -174q-65 -89 -152 -89q-51 0 -85 43q-27 35 -27 76q0 94 97 227q39 53 86 99q-48 142 -48 180q0 52 48 110q21 26 87 95q116 122 180 233q61 106 61 158
q0 17 -6.5 25t-20.5 8q-33 0 -81 -62q-161 -205 -325 -662q-25 -68 -124 -325q-23 -60 -37 -103q-20 -59 -27 -71q-16 -25 -42 -25q-16 0 -28 11q-16 15 -16 35q0 24 30 105q7 18 98 247q22 57 78 204q100 264 139 348q89 193 199 325q83 100 162 100q46 0 79 -39
q25 -31 25 -71q0 -111 -110 -282q-74 -114 -199 -243q-81 -82 -81 -127q0 -44 30 -119zM307 417q-45 -37 -75 -84q-46 -71 -46 -118q0 -21 9.5 -32t28.5 -11q59 0 83 94q10 39 10 78q0 26 -10 73z" />
    <glyph glyph-name="agrave" unicode="&#xe0;" horiz-adv-x="530" 
d="M236 243q-33 -58 -65 -98q-63 -78 -125 -78q-54 0 -84 51q-19 33 -19 78q0 111 70 245q78 149 188 229q72 52 139 52q42 0 70 -26q24 -23 24 -52q0 -22 -17 -61q15 -21 15 -37q0 -21 -28 -69q-29 -49 -58 -130q-31 -86 -31 -138q0 -42 25 -69q7 -7 41 -23q25 -12 25 -42
q0 -19 -14 -31q-15 -13 -35 -13q-54 0 -93 48q-32 39 -32 98q0 20 4 66zM361 572q-12 22 -26 32.5t-30 10.5q-76 0 -165 -133q-98 -147 -98 -249q0 -25 9.5 -38t28.5 -13q48 0 112 102q36 56 89 165q35 71 51 94q8 12 29 29zM394 1105q26 0 56 -43q10 -15 45 -61
q35 -45 47 -58q37 -45 37 -69q0 -35 -31 -35q-24 0 -57 37q-138 155 -138 193q0 13 11 23q12 13 30 13z" />
    <glyph glyph-name="aacute" unicode="&#xe1;" horiz-adv-x="530" 
d="M236 243q-33 -58 -65 -98q-63 -78 -125 -78q-54 0 -84 51q-19 33 -19 78q0 111 70 245q78 149 188 229q72 52 139 52q42 0 70 -26q24 -23 24 -52q0 -22 -17 -61q15 -21 15 -37q0 -21 -28 -69q-29 -49 -58 -130q-31 -86 -31 -138q0 -42 25 -69q7 -7 41 -23q25 -12 25 -42
q0 -19 -14 -31q-15 -13 -35 -13q-54 0 -93 48q-32 39 -32 98q0 20 4 66zM361 572q-12 22 -26 32.5t-30 10.5q-76 0 -165 -133q-98 -147 -98 -249q0 -25 9.5 -38t28.5 -13q48 0 112 102q36 56 89 165q35 71 51 94q8 12 29 29zM540 1105q17 0 28 -13q11 -11 11 -23
q0 -25 -90 -136q-47 -58 -66 -75q-21 -19 -39 -19q-31 0 -31 35q0 24 38 69q28 29 91 119q31 43 58 43z" />
    <glyph glyph-name="acircumflex" unicode="&#xe2;" horiz-adv-x="530" 
d="M236 243q-33 -58 -65 -98q-63 -78 -125 -78q-54 0 -84 51q-19 33 -19 78q0 111 70 245q78 149 188 229q72 52 139 52q42 0 70 -26q24 -23 24 -52q0 -22 -17 -61q15 -21 15 -37q0 -21 -28 -69q-29 -49 -58 -130q-31 -86 -31 -138q0 -42 25 -69q7 -7 41 -23q25 -12 25 -42
q0 -19 -14 -31q-15 -13 -35 -13q-54 0 -93 48q-32 39 -32 98q0 20 4 66zM361 572q-12 22 -26 32.5t-30 10.5q-76 0 -165 -133q-98 -147 -98 -249q0 -25 9.5 -38t28.5 -13q48 0 112 102q36 56 89 165q35 71 51 94q8 12 29 29zM350 1037q34 0 84 -63q51 -64 51 -98
q0 -13 -14 -27q-12 -12 -28 -12q-26 0 -59 44q-40 53 -63 53q-7 0 -24 -8q-16 -7 -62 -22q-33 -10 -45 -10q-16 0 -28 14q-9 10 -9 24q0 25 33 43q38 22 88 41q57 21 76 21z" />
    <glyph glyph-name="atilde" unicode="&#xe3;" horiz-adv-x="530" 
d="M236 243q-33 -58 -65 -98q-63 -78 -125 -78q-54 0 -84 51q-19 33 -19 78q0 111 70 245q78 149 188 229q72 52 139 52q42 0 70 -26q24 -23 24 -52q0 -22 -17 -61q15 -21 15 -37q0 -21 -28 -69q-29 -49 -58 -130q-31 -86 -31 -138q0 -42 25 -69q7 -7 41 -23q25 -12 25 -42
q0 -19 -14 -31q-15 -13 -35 -13q-54 0 -93 48q-32 39 -32 98q0 20 4 66zM361 572q-12 22 -26 32.5t-30 10.5q-76 0 -165 -133q-98 -147 -98 -249q0 -25 9.5 -38t28.5 -13q48 0 112 102q36 56 89 165q35 71 51 94q8 12 29 29zM205 1036q62 0 221 -30q24 -5 56 -5q71 0 147 23
q16 5 26 5q18 0 29 -17q6 -10 6 -21q0 -38 -46 -59q-63 -30 -135 -30q-70 0 -218 26q-23 4 -66 4q-19 0 -30 -1q-56 -8 -58 -8q-16 0 -30 14t-14 35q0 64 112 64z" />
    <glyph glyph-name="adieresis" unicode="&#xe4;" horiz-adv-x="530" 
d="M236 243q-33 -58 -65 -98q-63 -78 -125 -78q-54 0 -84 51q-19 33 -19 78q0 111 70 245q78 149 188 229q72 52 139 52q42 0 70 -26q24 -23 24 -52q0 -22 -17 -61q15 -21 15 -37q0 -21 -28 -69q-29 -49 -58 -130q-31 -86 -31 -138q0 -42 25 -69q7 -7 41 -23q25 -12 25 -42
q0 -19 -14 -31q-15 -13 -35 -13q-54 0 -93 48q-32 39 -32 98q0 20 4 66zM361 572q-12 22 -26 32.5t-30 10.5q-76 0 -165 -133q-98 -147 -98 -249q0 -25 9.5 -38t28.5 -13q48 0 112 102q36 56 89 165q35 71 51 94q8 12 29 29zM437 1067q21 0 33 -14q12 -13 12 -32
q0 -42 -44 -93q-42 -49 -81 -49q-19 0 -32 14q-11 13 -11 33q0 47 53 101q39 40 70 40zM646 1067q21 0 33 -14q12 -13 12 -32q0 -42 -44 -93q-42 -49 -81 -49q-19 0 -31 14q-12 13 -12 33q0 47 53 101q39 40 70 40z" />
    <glyph glyph-name="aring" unicode="&#xe5;" horiz-adv-x="530" 
d="M236 243q-33 -58 -65 -98q-63 -78 -125 -78q-54 0 -84 51q-19 33 -19 78q0 111 70 245q78 149 188 229q72 52 139 52q42 0 70 -26q24 -23 24 -52q0 -22 -17 -61q15 -21 15 -37q0 -21 -28 -69q-29 -49 -58 -130q-31 -86 -31 -138q0 -42 25 -69q7 -7 41 -23q25 -12 25 -42
q0 -19 -14 -31q-15 -13 -35 -13q-54 0 -93 48q-32 39 -32 98q0 20 4 66zM361 572q-12 22 -26 32.5t-30 10.5q-76 0 -165 -133q-98 -147 -98 -249q0 -25 9.5 -38t28.5 -13q48 0 112 102q36 56 89 165q35 71 51 94q8 12 29 29zM601 1099q30 0 51 -21t21 -51q0 -70 -78 -150
q-66 -68 -120 -68q-36 0 -57 31q-14 20 -14 44q0 75 79 152q65 63 118 63zM575 1029q-20 0 -53 -31q-54 -50 -54 -95q0 -14 6 -21t17 -7q33 0 71 43q42 47 42 85q0 13 -7 19.5t-22 6.5z" />
    <glyph glyph-name="ae" unicode="&#xe6;" horiz-adv-x="777" 
d="M225 208q-52 -76 -105 -114.5t-107 -38.5q-56 0 -89 55q-23 39 -23 82q0 117 100 214q86 84 188 84q21 0 45.5 -6t52.5 -18q30 64 30 112q0 18 -12 33q-15 20 -39 20q-31 0 -120 -40q-26 -12 -44 -12q-31 0 -31 36q0 23 21 38q30 22 98 53q63 29 120 29q44 0 70.5 -25
t34.5 -75q93 86 155 86q41 0 66 -27q25 -26 25 -65q0 -63 -38 -138q-42 -83 -120 -130q-63 -37 -116 -37q-18 0 -52 12q-16 -46 -16 -85q0 -43 17 -64.5t51 -21.5q69 0 145 77q49 50 112 138q29 41 49 41q12 0 21 -13q5 -7 5 -15q0 -40 -103 -168q-137 -169 -262 -169
q-80 0 -110 75q-11 25 -19 77zM370 419q24 -4 39 -4q76 0 139 94q28 43 28 80q0 17 -7 25t-21 8q-71 0 -178 -203zM243 380q-40 25 -73 25q-77 0 -133 -79q-42 -58 -42 -113q0 -21 13 -37q13 -15 33 -15q52 0 116 72q43 47 70 107q17 39 16 40z" />
    <glyph glyph-name="ccedilla" unicode="&#xe7;" horiz-adv-x="560" 
d="M8 63q-19 5 -30 12q-64 40 -64 120q0 160 167 354q128 149 229 149q41 0 62 -35q11 -19 11 -48q0 -73 -58 -147q-43 -56 -76 -56q-29 0 -29 32q0 14 4.5 21.5t27.5 28.5q18 17 38 51q13 23 13 37q0 16 -18 16q-21 0 -64 -33q-68 -52 -136 -166q-70 -118 -70 -186
q0 -22 13 -39q19 -26 51 -26q63 0 149 78q74 67 123 134q26 37 45 37q11 0 20 -10q8 -10 8 -20q0 -48 -134 -185q-108 -112 -202 -122l-40 -74q48 -10 69 -23q36 -22 36 -63q0 -47 -41 -82q-39 -33 -102 -33q-68 0 -110 32q-28 22 -28 47q0 29 23 29q8 0 21 -9
q49 -33 86 -33q28 0 49 14q17 11 17 26q0 18 -21 28q-13 7 -30 8q-39 1 -46 5q-13 7 -13 21q0 13 21 51z" />
    <glyph glyph-name="egrave" unicode="&#xe8;" horiz-adv-x="562" 
d="M20 270v-18q0 -22 11 -38q25 -37 82 -37q125 0 289 192q29 33 49 33q11 0 20 -11q6 -8 6 -15q0 -39 -96 -132q-75 -73 -160 -119t-158 -46q-75 0 -118 52q-29 36 -29 98q0 169 159 331q129 132 225 132q26 0 47 -16q26 -21 26 -55q0 -53 -49 -130q-101 -160 -304 -221z
M42 348q70 24 110 54q70 54 111 122q15 24 15 43q0 20 -19 20q-26 0 -74 -39q-86 -69 -143 -200zM410 1105q26 0 56 -43q10 -15 45 -61q35 -45 47 -58q37 -45 37 -69q0 -35 -31 -35q-24 0 -57 37q-138 155 -138 193q0 13 11 23q12 13 30 13z" />
    <glyph glyph-name="eacute" unicode="&#xe9;" horiz-adv-x="562" 
d="M20 270v-18q0 -22 11 -38q25 -37 82 -37q125 0 289 192q29 33 49 33q11 0 20 -11q6 -8 6 -15q0 -39 -96 -132q-75 -73 -160 -119t-158 -46q-75 0 -118 52q-29 36 -29 98q0 169 159 331q129 132 225 132q26 0 47 -16q26 -21 26 -55q0 -53 -49 -130q-101 -160 -304 -221z
M42 348q70 24 110 54q70 54 111 122q15 24 15 43q0 20 -19 20q-26 0 -74 -39q-86 -69 -143 -200zM556 1105q17 0 28 -13q11 -11 11 -23q0 -25 -90 -136q-47 -58 -66 -75q-21 -19 -39 -19q-31 0 -31 35q0 24 38 69q28 29 91 119q31 43 58 43z" />
    <glyph glyph-name="ecircumflex" unicode="&#xea;" horiz-adv-x="562" 
d="M20 270v-18q0 -22 11 -38q25 -37 82 -37q125 0 289 192q29 33 49 33q11 0 20 -11q6 -8 6 -15q0 -39 -96 -132q-75 -73 -160 -119t-158 -46q-75 0 -118 52q-29 36 -29 98q0 169 159 331q129 132 225 132q26 0 47 -16q26 -21 26 -55q0 -53 -49 -130q-101 -160 -304 -221z
M42 348q70 24 110 54q70 54 111 122q15 24 15 43q0 20 -19 20q-26 0 -74 -39q-86 -69 -143 -200zM311 1037q34 0 84 -63q51 -64 51 -98q0 -13 -14 -27q-12 -12 -28 -12q-26 0 -59 44q-40 53 -63 53q-7 0 -24 -8q-16 -7 -62 -22q-33 -10 -45 -10q-16 0 -28 14q-9 10 -9 24
q0 25 33 43q38 22 88 41q57 21 76 21z" />
    <glyph glyph-name="edieresis" unicode="&#xeb;" horiz-adv-x="562" 
d="M20 270v-18q0 -22 11 -38q25 -37 82 -37q125 0 289 192q29 33 49 33q11 0 20 -11q6 -8 6 -15q0 -39 -96 -132q-75 -73 -160 -119t-158 -46q-75 0 -118 52q-29 36 -29 98q0 169 159 331q129 132 225 132q26 0 47 -16q26 -21 26 -55q0 -53 -49 -130q-101 -160 -304 -221z
M42 348q70 24 110 54q70 54 111 122q15 24 15 43q0 20 -19 20q-26 0 -74 -39q-86 -69 -143 -200zM452 1067q21 0 33 -14q12 -13 12 -32q0 -42 -44 -93q-42 -49 -81 -49q-19 0 -32 14q-11 13 -11 33q0 47 53 101q39 40 70 40zM661 1067q21 0 33 -14q12 -13 12 -32
q0 -42 -44 -93q-42 -49 -81 -49q-19 0 -31 14q-12 13 -12 33q0 47 53 101q39 40 70 40z" />
    <glyph glyph-name="igrave" unicode="&#xec;" horiz-adv-x="270" 
d="M204 677q17 0 28 -13q8 -11 8 -22q0 -18 -29 -60q-104 -161 -148 -265q-47 -107 -83 -220q-16 -50 -50 -50q-20 0 -32 16q-11 13 -11 28q0 30 64 200q50 134 162 296q36 53 54 71q18 19 37 19zM318 1105q26 0 56 -43q10 -15 45 -61q35 -45 47 -58q37 -45 37 -69
q0 -35 -31 -35q-24 0 -57 37q-138 155 -138 193q0 13 11 23q12 13 30 13z" />
    <glyph glyph-name="iacute" unicode="&#xed;" horiz-adv-x="270" 
d="M204 677q17 0 28 -13q8 -11 8 -22q0 -18 -29 -60q-104 -161 -148 -265q-47 -107 -83 -220q-16 -50 -50 -50q-20 0 -32 16q-11 13 -11 28q0 30 64 200q50 134 162 296q36 53 54 71q18 19 37 19zM464 1105q17 0 28 -13q11 -11 11 -23q0 -25 -90 -136q-47 -58 -66 -75
q-21 -19 -39 -19q-31 0 -31 35q0 24 38 69q28 29 91 119q31 43 58 43z" />
    <glyph glyph-name="icircumflex" unicode="&#xee;" horiz-adv-x="270" 
d="M204 677q17 0 28 -13q8 -11 8 -22q0 -18 -29 -60q-104 -161 -148 -265q-47 -107 -83 -220q-16 -50 -50 -50q-20 0 -32 16q-11 13 -11 28q0 30 64 200q50 134 162 296q36 53 54 71q18 19 37 19zM220 1037q34 0 84 -63q51 -64 51 -98q0 -13 -14 -27q-12 -12 -28 -12
q-26 0 -59 44q-40 53 -63 53q-7 0 -24 -8q-16 -7 -62 -22q-33 -10 -45 -10q-16 0 -28 14q-9 10 -9 24q0 25 33 43q38 22 88 41q57 21 76 21z" />
    <glyph glyph-name="idieresis" unicode="&#xef;" horiz-adv-x="270" 
d="M204 677q17 0 28 -13q8 -11 8 -22q0 -18 -29 -60q-104 -161 -148 -265q-47 -107 -83 -220q-16 -50 -50 -50q-20 0 -32 16q-11 13 -11 28q0 30 64 200q50 134 162 296q36 53 54 71q18 19 37 19zM279 1070q41 0 41 -42q0 -38 -40 -85q-39 -45 -74 -45q-40 0 -40 42
q0 44 49 94q36 36 64 36zM458 1070q41 0 41 -42q0 -39 -40 -85q-39 -45 -74 -45q-40 0 -40 43t49 93q36 36 64 36z" />
    <glyph glyph-name="eth" unicode="&#xf0;" horiz-adv-x="489" 
d="M463 1064q-9 89 -17 140q-3 16 -3 28q0 41 31 41q24 0 39 -52q12 -39 21 -109q46 29 102 73q34 27 46 27q22 0 22 -25q0 -48 -160 -157q-6 -189 -64 -341q-127 -337 -250 -494q-103 -131 -198 -131q-37 0 -64 25q-39 35 -39 92q0 174 136 352q68 89 144 143q66 47 121 47
q40 0 60 -38q52 122 71 289q-92 -64 -132 -64q-18 0 -29 13q-8 8 -8 17q0 10 9 20q7 8 47 30q51 27 115 74zM226 343q-26 20 -26 35q0 10 25 34q28 26 63 84q33 56 33 87q0 27 -25 27q-32 0 -86 -50q-94 -88 -143 -198q-36 -80 -36 -133q0 -25 15 -40q11 -9 24 -9
q39 0 85 49q34 36 56 79q17 34 15 35z" />
    <glyph glyph-name="ntilde" unicode="&#xf1;" horiz-adv-x="527" 
d="M127 421q13 12 25 24q209 204 280 204q39 0 39 -43q0 -30 -35 -71q-191 -223 -191 -393q0 -55 30 -105q14 -23 14 -36q0 -12 -12 -23q-13 -14 -31 -14q-41 0 -69 52q-27 49 -27 119q0 135 102 299q-136 -87 -253 -308q-30 -53 -64 -53q-17 0 -28 12q-14 14 -14 36
q0 54 123 283q66 124 104 180q38 55 65 55q13 0 25 -12q14 -14 14 -32q0 -22 -29 -63q-42 -61 -68 -111zM203 1036q62 0 221 -30q24 -5 56 -5q71 0 147 23q16 5 26 5q18 0 29 -17q6 -10 6 -21q0 -38 -46 -59q-63 -30 -135 -30q-70 0 -218 26q-23 4 -66 4q-19 0 -30 -1
q-56 -8 -58 -8q-16 0 -30 14t-14 35q0 64 112 64z" />
    <glyph glyph-name="ograve" unicode="&#xf2;" horiz-adv-x="475" 
d="M328 723q82 0 82 -100q0 -133 -123 -337q-134 -221 -259 -221q-58 0 -85 54q-14 27 -14 65q0 128 88 278q82 139 193 216q65 45 118 45zM224 345q-25 20 -25 31q0 8 32 44q90 101 90 163q0 8 -5 16q-8 15 -25 15q-32 0 -94 -62q-80 -80 -122 -165q-49 -97 -49 -161
q0 -17 9 -30q13 -18 33 -18q48 0 103 72q24 30 39 62t14 33zM394 1105q26 0 56 -43q10 -15 45 -61q35 -45 47 -58q37 -45 37 -69q0 -35 -31 -35q-24 0 -57 37q-138 155 -138 193q0 13 11 23q12 13 30 13z" />
    <glyph glyph-name="oacute" unicode="&#xf3;" horiz-adv-x="475" 
d="M328 723q82 0 82 -100q0 -133 -123 -337q-134 -221 -259 -221q-58 0 -85 54q-14 27 -14 65q0 128 88 278q82 139 193 216q65 45 118 45zM224 345q-25 20 -25 31q0 8 32 44q90 101 90 163q0 8 -5 16q-8 15 -25 15q-32 0 -94 -62q-80 -80 -122 -165q-49 -97 -49 -161
q0 -17 9 -30q13 -18 33 -18q48 0 103 72q24 30 39 62t14 33zM567 1105q17 0 28 -13q11 -11 11 -23q0 -25 -90 -136q-47 -58 -66 -75q-21 -19 -39 -19q-31 0 -31 35q0 24 38 69q28 29 91 119q31 43 58 43z" />
    <glyph glyph-name="ocircumflex" unicode="&#xf4;" horiz-adv-x="475" 
d="M328 723q82 0 82 -100q0 -133 -123 -337q-134 -221 -259 -221q-58 0 -85 54q-14 27 -14 65q0 128 88 278q82 139 193 216q65 45 118 45zM224 345q-25 20 -25 31q0 8 32 44q90 101 90 163q0 8 -5 16q-8 15 -25 15q-32 0 -94 -62q-80 -80 -122 -165q-49 -97 -49 -161
q0 -17 9 -30q13 -18 33 -18q48 0 103 72q24 30 39 62t14 33zM323 1037q34 0 84 -63q51 -64 51 -98q0 -13 -14 -27q-12 -12 -28 -12q-26 0 -59 44q-40 53 -63 53q-7 0 -24 -8q-16 -7 -62 -22q-33 -10 -45 -10q-16 0 -28 14q-9 10 -9 24q0 25 33 43q38 22 88 41q57 21 76 21z
" />
    <glyph glyph-name="otilde" unicode="&#xf5;" horiz-adv-x="475" 
d="M328 723q82 0 82 -100q0 -133 -123 -337q-134 -221 -259 -221q-58 0 -85 54q-14 27 -14 65q0 128 88 278q82 139 193 216q65 45 118 45zM224 345q-25 20 -25 31q0 8 32 44q90 101 90 163q0 8 -5 16q-8 15 -25 15q-32 0 -94 -62q-80 -80 -122 -165q-49 -97 -49 -161
q0 -17 9 -30q13 -18 33 -18q48 0 103 72q24 30 39 62t14 33zM178 1036q62 0 221 -30q24 -5 56 -5q71 0 147 23q16 5 26 5q18 0 29 -17q6 -10 6 -21q0 -38 -46 -59q-63 -30 -135 -30q-70 0 -218 26q-23 4 -66 4q-19 0 -30 -1q-56 -8 -58 -8q-16 0 -30 14t-14 35q0 64 112 64z
" />
    <glyph glyph-name="odieresis" unicode="&#xf6;" horiz-adv-x="475" 
d="M328 723q82 0 82 -100q0 -133 -123 -337q-134 -221 -259 -221q-58 0 -85 54q-14 27 -14 65q0 128 88 278q82 139 193 216q65 45 118 45zM224 345q-25 20 -25 31q0 8 32 44q90 101 90 163q0 8 -5 16q-8 15 -25 15q-32 0 -94 -62q-80 -80 -122 -165q-49 -97 -49 -161
q0 -17 9 -30q13 -18 33 -18q48 0 103 72q24 30 39 62t14 33zM409 1067q21 0 33 -14q12 -13 12 -32q0 -42 -44 -93q-42 -49 -81 -49q-19 0 -32 14q-11 13 -11 33q0 47 53 101q39 40 70 40zM618 1067q21 0 33 -14q12 -13 12 -32q0 -42 -44 -93q-42 -49 -81 -49q-19 0 -31 14
q-12 13 -12 33q0 47 53 101q39 40 70 40z" />
    <glyph glyph-name="divide" unicode="&#xf7;" 
d="M261 418q20 0 33 -18q9 -12 9 -29q0 -43 -23 -89q-25 -50 -65 -50q-41 0 -41 47q0 46 29 95q25 44 58 44zM454 872q20 0 33 -18q9 -12 9 -29q0 -43 -23 -89q-25 -50 -65 -50q-41 0 -41 47q0 46 29 95q26 44 58 44zM300 606q35 0 89 -2q96 -3 126 -3q65 0 88 -12
q18 -9 18 -38q0 -26 -18 -41q-10 -8 -25 -8q-11 0 -36 3q-41 4 -231 4q-112 0 -169 -11q-26 -5 -41 -5q-27 0 -41 22q-8 12 -8 27q0 45 52 56q42 8 196 8z" />
    <glyph glyph-name="oslash" unicode="&#xf8;" horiz-adv-x="475" 
d="M403 659q48 41 62 41q12 0 23 -15q5 -8 5 -16q0 -29 -92 -110q-33 -149 -136 -310q-120 -187 -239 -187q-41 0 -66 30t-33 90q-16 -7 -21 -9q-26 -14 -37 -14t-19 7q-13 9 -13 24q0 20 44 50t60 41q32 135 144 275q131 164 244 164q51 0 74 -61zM313 575q3 9 3 13
q0 24 -28 24q-40 0 -115 -87q-60 -69 -100 -144q92 60 240 194zM25 253q-1 -17 -1 -28q0 -25 10 -38t30 -13q65 0 138 117q42 68 74 158q-34 -29 -130 -102l-96 -75z" />
    <glyph glyph-name="ugrave" unicode="&#xf9;" horiz-adv-x="532" 
d="M221 231q-43 -60 -76 -96q-58 -64 -115 -64q-49 0 -76 44q-19 31 -19 74q0 129 110 296q51 78 101 119q39 33 64 33q14 0 26 -12q10 -11 10 -22q0 -19 -37 -62q-83 -99 -126 -182q-50 -97 -50 -152q0 -14 6.5 -21.5t18.5 -7.5q51 0 142 146q47 76 81 168q18 50 47 89
q28 35 55 35q15 0 27 -13q13 -14 13 -31q0 -36 -69 -162q-47 -87 -47 -145q0 -62 33 -106q9 -12 55 -38q22 -13 22 -42q0 -18 -15.5 -31t-37.5 -13q-50 0 -91 40q-37 36 -47 104q-2 9 -5 52zM395 1105q26 0 56 -43q10 -15 45 -61q35 -45 47 -58q37 -45 37 -69q0 -35 -31 -35
q-24 0 -57 37q-138 155 -138 193q0 13 11 23q12 13 30 13z" />
    <glyph glyph-name="uacute" unicode="&#xfa;" horiz-adv-x="532" 
d="M221 231q-43 -60 -76 -96q-58 -64 -115 -64q-49 0 -76 44q-19 31 -19 74q0 129 110 296q51 78 101 119q39 33 64 33q14 0 26 -12q10 -11 10 -22q0 -19 -37 -62q-83 -99 -126 -182q-50 -97 -50 -152q0 -14 6.5 -21.5t18.5 -7.5q51 0 142 146q47 76 81 168q18 50 47 89
q28 35 55 35q15 0 27 -13q13 -14 13 -31q0 -36 -69 -162q-47 -87 -47 -145q0 -62 33 -106q9 -12 55 -38q22 -13 22 -42q0 -18 -15.5 -31t-37.5 -13q-50 0 -91 40q-37 36 -47 104q-2 9 -5 52zM541 1105q17 0 28 -13q11 -11 11 -23q0 -25 -90 -136q-47 -58 -66 -75
q-21 -19 -39 -19q-31 0 -31 35q0 24 38 69q28 29 91 119q31 43 58 43z" />
    <glyph glyph-name="ucircumflex" unicode="&#xfb;" horiz-adv-x="532" 
d="M221 231q-43 -60 -76 -96q-58 -64 -115 -64q-49 0 -76 44q-19 31 -19 74q0 129 110 296q51 78 101 119q39 33 64 33q14 0 26 -12q10 -11 10 -22q0 -19 -37 -62q-83 -99 -126 -182q-50 -97 -50 -152q0 -14 6.5 -21.5t18.5 -7.5q51 0 142 146q47 76 81 168q18 50 47 89
q28 35 55 35q15 0 27 -13q13 -14 13 -31q0 -36 -69 -162q-47 -87 -47 -145q0 -62 33 -106q9 -12 55 -38q22 -13 22 -42q0 -18 -15.5 -31t-37.5 -13q-50 0 -91 40q-37 36 -47 104q-2 9 -5 52zM351 1037q34 0 84 -63q51 -64 51 -98q0 -13 -14 -27q-12 -12 -28 -12
q-26 0 -59 44q-40 53 -63 53q-7 0 -24 -8q-16 -7 -62 -22q-33 -10 -45 -10q-16 0 -28 14q-9 10 -9 24q0 25 33 43q38 22 88 41q57 21 76 21z" />
    <glyph glyph-name="udieresis" unicode="&#xfc;" horiz-adv-x="532" 
d="M221 231q-43 -60 -76 -96q-58 -64 -115 -64q-49 0 -76 44q-19 31 -19 74q0 129 110 296q51 78 101 119q39 33 64 33q14 0 26 -12q10 -11 10 -22q0 -19 -37 -62q-83 -99 -126 -182q-50 -97 -50 -152q0 -14 6.5 -21.5t18.5 -7.5q51 0 142 146q47 76 81 168q18 50 47 89
q28 35 55 35q15 0 27 -13q13 -14 13 -31q0 -36 -69 -162q-47 -87 -47 -145q0 -62 33 -106q9 -12 55 -38q22 -13 22 -42q0 -18 -15.5 -31t-37.5 -13q-50 0 -91 40q-37 36 -47 104q-2 9 -5 52zM437 1067q21 0 33 -14q12 -13 12 -32q0 -42 -44 -93q-42 -49 -81 -49
q-19 0 -32 14q-11 13 -11 33q0 47 53 101q39 40 70 40zM646 1067q21 0 33 -14q12 -13 12 -32q0 -42 -44 -93q-42 -49 -81 -49q-19 0 -31 14q-12 13 -12 33q0 47 53 101q39 40 70 40z" />
    <glyph glyph-name="yacute" unicode="&#xfd;" horiz-adv-x="691" 
d="M301 358q-89 -105 -142 -156q-105 -100 -175 -100q-34 0 -54 25q-15 20 -15 50q0 108 128 287q130 182 188 182q16 0 28 -14q11 -11 11 -26q0 -22 -11.5 -38.5t-65.5 -73.5q-57 -59 -105 -128q-55 -78 -55 -114q0 -21 20 -21q40 0 150 109q69 69 108 116q8 10 70 95
q56 75 69 89q30 35 56 35q16 0 29 -14q12 -13 12 -30q0 -29 -40 -97q-48 -83 -88 -155q-63 -112 -97 -200q64 37 117 91q90 90 110 134q19 40 39 40q28 0 28 -28q0 -53 -90 -158q-108 -126 -266 -214q-84 -202 -159 -335q-140 -245 -289 -245q-61 0 -98 47q-29 36 -29 91
q0 156 219 319q64 48 190 120q51 29 80 47q18 46 55 122q41 82 72 148zM117 -35q-106 -54 -217 -154q-112 -103 -112 -192q0 -19 11 -32q15 -18 39 -18q75 0 166 157q15 26 82 173q14 30 31 66zM620 1105q17 0 28 -13q11 -11 11 -23q0 -25 -90 -136q-47 -58 -66 -75
q-21 -19 -39 -19q-31 0 -31 35q0 24 38 69q28 29 91 119q31 43 58 43z" />
    <glyph glyph-name="thorn" unicode="&#xfe;" horiz-adv-x="540" 
d="M230 609q41 26 61 36q41 20 80 20q44 0 66 -25.5t22 -76.5q0 -70 -49 -168q-76 -155 -184 -244q-91 -75 -171 -75q-44 0 -87 34q-137 -277 -245 -565q-23 -69 -54 -69q-15 0 -30 20q-11 14 -11 31q0 40 82 235q107 254 264 565q93 184 295 533q105 181 160 270
q54 87 53 88q36 65 68 65q34 0 34 -41q0 -18 -15 -46q-4 -8 -168 -282q-149 -265 -171 -305zM5 194q22 -23 55 -23q93 0 206 165q42 61 67 125q20 51 20 77q0 18 -8.5 27t-26.5 9q-47 0 -115 -65q-65 -63 -125 -177q-55 -105 -73 -138z" />
    <glyph glyph-name="ydieresis" unicode="&#xff;" horiz-adv-x="691" 
d="M301 358q-89 -105 -142 -156q-105 -100 -175 -100q-34 0 -54 25q-15 20 -15 50q0 108 128 287q130 182 188 182q16 0 28 -14q11 -11 11 -26q0 -22 -11.5 -38.5t-65.5 -73.5q-57 -59 -105 -128q-55 -78 -55 -114q0 -21 20 -21q40 0 150 109q69 69 108 116q8 10 70 95
q56 75 69 89q30 35 56 35q16 0 29 -14q12 -13 12 -30q0 -29 -40 -97q-48 -83 -88 -155q-63 -112 -97 -200q64 37 117 91q90 90 110 134q19 40 39 40q28 0 28 -28q0 -53 -90 -158q-108 -126 -266 -214q-84 -202 -159 -335q-140 -245 -289 -245q-61 0 -98 47q-29 36 -29 91
q0 156 219 319q64 48 190 120q51 29 80 47q18 46 55 122q41 82 72 148zM117 -35q-106 -54 -217 -154q-112 -103 -112 -192q0 -19 11 -32q15 -18 39 -18q75 0 166 157q15 26 82 173q14 30 31 66zM517 1067q21 0 33 -14q12 -13 12 -32q0 -42 -44 -93q-42 -49 -81 -49
q-19 0 -32 14q-11 13 -11 33q0 47 53 101q39 40 70 40zM726 1067q21 0 33 -14q12 -13 12 -32q0 -42 -44 -93q-42 -49 -81 -49q-19 0 -31 14q-12 13 -12 33q0 47 53 101q39 40 70 40z" />
    <glyph glyph-name="dotlessi" unicode="&#x131;" horiz-adv-x="270" 
d="M204 677q17 0 28 -13q8 -11 8 -22q0 -18 -29 -60q-104 -161 -148 -265q-47 -107 -83 -220q-16 -50 -50 -50q-20 0 -32 16q-11 13 -11 28q0 30 64 200q50 134 162 296q36 53 54 71q18 19 37 19z" />
    <glyph glyph-name="OE" unicode="&#x152;" horiz-adv-x="1345" 
d="M660 173q81 35 171 60q158 44 269 44q50 0 75 -12q23 -10 23 -43q0 -30 -26 -42q-17 -8 -64 -7q-113 2 -260 -42q-75 -22 -129 -46q-42 -21 -81 -43q-26 -15 -45 -15q-25 0 -47 21q-23 22 -23 53t55 175q-65 -81 -142 -148t-145 -108q-57 -34 -125 -34q-87 0 -140 71
q-40 53 -40 133q0 191 131 441q97 186 294 410q109 124 210 207q-54 -14 -90 -28q-22 -10 -85 -42q-21 -11 -39 -11q-14 0 -25 10q-14 14 -14 36q0 24 24 42q52 39 152 75q106 38 201 38q119 0 192 -72t73 -161q0 -19 -7 -58q30 52 54 85q14 19 29 43q-42 8 -42 58
q0 38 66 55q129 35 319 54q180 19 229 19q80 0 80 -54q0 -33 -28 -48q-18 -11 -69 -10q-309 -11 -448 -55q11 -14 11 -24q0 -19 -45 -82q-135 -199 -189 -299q256 51 346 51q65 0 65 -50q0 -55 -84 -56q-269 -21 -392 -60q-60 -93 -157 -298q-61 -132 -88 -233zM674 1260
q16 -20 16 -34q0 -19 -56 -78q-529 -559 -529 -924q0 -42 18 -73q25 -41 69 -41q68 0 174 90t249 270q104 131 152 215q58 101 99 230q34 105 34 184q0 78 -53 126q-40 36 -123 36z" />
    <glyph glyph-name="oe" unicode="&#x153;" horiz-adv-x="810" 
d="M418 607q116 100 200 100q40 0 64 -32q19 -26 19 -58q0 -68 -50 -143q-47 -72 -125 -115q-64 -35 -111 -35q-20 0 -62 14q-35 -63 -35 -105q0 -33 17 -50t51 -17q81 0 166 75q70 62 107 119q31 48 53 48q27 0 27 -32q0 -41 -78 -133q-69 -81 -157 -134q-78 -47 -146 -47
q-51 0 -86.5 27t-56.5 80q-95 -105 -182 -105q-54 0 -85 54q-19 33 -19 75q0 124 93 271q88 140 194 211q72 48 124 48q36 0 62 -28q19 -20 19 -49q0 -17 -3 -39zM402 431q21 -12 36 -12q66 0 128 76q44 54 44 92q0 30 -23 30q-57 0 -185 -186zM299 614q-32 0 -97 -67
q-70 -72 -117 -160q-51 -96 -51 -158q0 -17 9 -32q14 -23 37 -23q49 0 118 94q45 62 92 153q49 97 49 149q0 44 -40 44z" />
    <glyph glyph-name="Scaron" unicode="&#x160;" horiz-adv-x="806" 
d="M152 464q54 0 54 -44q0 -33 -50 -50q-86 -31 -86 -111q0 -64 50 -100q43 -30 109 -30q132 0 231 77q62 49 62 124q0 46 -18 83q-19 38 -58 96q-60 90 -101 164q-46 82 -46 161q0 187 185 350q98 85 216 138q98 43 189 43q59 0 100 -31q50 -37 50 -101q0 -100 -108 -216
q-102 -109 -238 -178q-68 -34 -103 -34q-23 0 -41 19q-12 13 -12 29q0 37 66 60q121 43 214 121q120 100 120 175q0 29 -24 47q-19 14 -45 14q-69 0 -173 -53q-140 -71 -220 -183q-70 -97 -70 -189q0 -67 37 -138q31 -57 79 -129q46 -69 78 -128q37 -70 37 -131
q0 -118 -135 -209q-115 -76 -260 -76q-143 0 -224 79q-61 60 -61 138q0 87 58 146q35 36 83 54q33 13 55 13zM827 1665q24 0 57 -44q40 -53 63 -53q6 0 24 8q16 8 61 22q33 11 45 11q16 0 28 -14q9 -10 9 -24q0 -25 -32 -44q-41 -22 -88 -40q-57 -22 -79 -22q-31 0 -82 63
q-50 63 -50 97q0 15 14 28q13 12 30 12z" />
    <glyph glyph-name="scaron" unicode="&#x161;" horiz-adv-x="521" 
d="M401 742q62 0 93 -22t31 -67q0 -59 -44 -114q-42 -52 -126 -84q-46 -17 -77 -17q-42 0 -42 37q0 25 24 38q6 3 68 17q37 8 68 35q27 23 27 50q0 21 -12 31t-36 10q-58 0 -128 -47q-81 -53 -81 -126q0 -52 53 -130q59 -85 59 -144q0 -88 -78 -138q-48 -31 -109 -31
q-96 0 -146 69q-35 49 -35 116q0 78 40 131q26 35 54 35q25 0 25 -20q0 -8 -9 -24q-23 -43 -23 -101q0 -49 35 -83q31 -30 71 -30q39 0 61 26q18 22 18 56q0 42 -48 109q-66 92 -66 167q0 100 109 177q106 74 224 74zM316 1037q24 0 57 -44q40 -53 63 -53q6 0 24 8
q16 8 61 22q33 11 45 11q16 0 28 -14q9 -10 9 -24q0 -25 -32 -44q-41 -22 -88 -40q-57 -22 -79 -22q-31 0 -82 63q-50 63 -50 97q0 15 14 28q13 12 30 12z" />
    <glyph glyph-name="Ydieresis" unicode="&#x178;" horiz-adv-x="844" 
d="M633 730q-79 -77 -192 -178q-64 -57 -114 -92q-52 -38 -109 -38t-87 60q-16 32 -16 69q0 126 102 313q91 167 251 324q159 157 225 157q16 0 28 -12q11 -12 11 -29q0 -28 -20 -46q-16 -14 -47 -33q-56 -35 -139 -116q-132 -130 -210 -281q-86 -167 -86 -236q0 -15 9 -27
q12 -17 32 -17q38 0 130 73q110 85 178 159q198 214 297 347q95 129 160 206q55 65 85 65q20 0 34 -20q11 -16 11 -37q0 -35 -38 -84q-271 -356 -359 -485q-133 -198 -231 -411q-113 -242 -137 -323q-23 -75 -43 -95t-45 -20q-47 0 -47 45q0 49 63 200q74 179 181 356
q91 150 123 206zM962 1695q21 0 33 -14q12 -13 12 -32q0 -42 -44 -93q-42 -49 -81 -49q-19 0 -32 14q-11 13 -11 33q0 47 53 101q39 40 70 40zM1171 1695q21 0 33 -14q12 -13 12 -32q0 -42 -44 -93q-42 -49 -81 -49q-19 0 -31 14q-12 13 -12 33q0 47 53 101q39 40 70 40z
" />
    <glyph glyph-name="florin" unicode="&#x192;" 
d="M288 587q-8 -2 -41 -10q-73 -18 -142 -18q-63 0 -63 42q0 55 103 60q81 4 188 33q96 220 173 324q81 111 171 143q61 22 130 22q37 0 63 -15q23 -13 23 -37q0 -49 -68 -49l-46 1q-137 0 -240 -183q-51 -90 -86 -177q10 2 65 18q49 13 86 13q109 0 109 -58q0 -25 -25 -38
q-16 -8 -73 -8q-63 1 -182 -30q-16 -4 -27 -8l-2 -7q-109 -273 -128 -320q-104 -245 -310 -442q-94 -90 -137 -90q-13 0 -24 10.5t-11 22.5q0 23 20 45q23 25 61 58q193 172 309 426q31 70 92 239q5 16 12 33z" />
    <glyph glyph-name="circumflex" unicode="&#x2c6;" horiz-adv-x="1024" 
d="M597 1037q34 0 84 -63q51 -64 51 -98q0 -13 -14 -27q-12 -12 -28 -12q-26 0 -59 44q-40 53 -63 53q-7 0 -24 -8q-16 -7 -62 -22q-33 -10 -45 -10q-16 0 -28 14q-9 10 -9 24q0 25 33 43q38 22 88 41q57 21 76 21z" />
    <glyph glyph-name="caron" unicode="&#x2c7;" horiz-adv-x="1024" 
d="M513 1037q24 0 57 -44q40 -53 63 -53q6 0 24 8q16 8 61 22q33 11 45 11q16 0 28 -14q9 -10 9 -24q0 -25 -32 -44q-41 -22 -88 -40q-57 -22 -79 -22q-31 0 -82 63q-50 63 -50 97q0 15 14 28q13 12 30 12z" />
    <glyph glyph-name="macron" unicode="&#x2c9;" horiz-adv-x="1024" 
d="M714 1016q114 0 151 -7q54 -10 54 -49q0 -48 -67 -48q-17 0 -43 1q-39 2 -58 2q-16 0 -82 -3q-50 -2 -86 -2q-78 0 -78 42q0 28 30 47q29 17 179 17z" />
    <glyph glyph-name="breve" unicode="&#x2d8;" horiz-adv-x="1024" 
d="M896 1029q21 0 32 -17q6 -10 6 -21q0 -45 -83 -78q-97 -39 -216 -39q-129 0 -228 44q-70 31 -70 73q0 11 6 21q11 17 31 17q11 0 76 -23q76 -28 185 -28z" />
    <glyph glyph-name="dotaccent" unicode="&#x2d9;" horiz-adv-x="1024" 
d="M770 1067q21 0 33 -14q12 -13 12 -32q0 -42 -44 -93q-42 -49 -81 -49q-19 0 -32 14q-11 13 -11 33q0 47 53 101q39 40 70 40z" />
    <glyph glyph-name="ring" unicode="&#x2da;" horiz-adv-x="1024" 
d="M847 1099q30 0 51 -21t21 -51q0 -70 -78 -150q-66 -68 -120 -68q-36 0 -57 31q-14 20 -14 44q0 75 79 152q65 63 118 63zM821 1029q-20 0 -53 -31q-54 -50 -54 -95q0 -14 6 -21t17 -7q33 0 71 43q42 47 42 85q0 13 -7 19.5t-22 6.5z" />
    <glyph glyph-name="ogonek" unicode="&#x2db;" horiz-adv-x="1024" 
d="M577 15q31 0 31 -14q0 -4 -5 -10q-50 -69 -50 -108q0 -28 18 -46q15 -16 38 -16t52 11q17 7 28 7q12 0 23 -10q13 -12 13 -29q0 -29 -39 -52q-43 -26 -97 -26q-64 0 -108 45q-24 25 -24 68q0 80 64 152q26 28 56 28z" />
    <glyph glyph-name="tilde" unicode="&#x2dc;" horiz-adv-x="1024" 
d="M452 1036q62 0 221 -30q24 -5 56 -5q71 0 147 23q16 5 26 5q18 0 29 -17q6 -10 6 -21q0 -38 -46 -59q-63 -30 -135 -30q-70 0 -218 26q-23 4 -66 4q-19 0 -30 -1q-56 -8 -58 -8q-16 0 -30 14t-14 35q0 64 112 64z" />
    <glyph glyph-name="hungarumlaut" unicode="&#x2dd;" horiz-adv-x="1024" 
d="M691 1105q17 0 28 -13q11 -11 11 -23q0 -25 -90 -136q-47 -58 -66 -75q-21 -19 -39 -19q-31 0 -31 35q0 24 38 69q28 29 91 119q31 43 58 43zM890 1105q17 0 29 -13q10 -11 10 -23q0 -24 -90 -136q-47 -59 -66 -75q-21 -19 -39 -19q-31 0 -31 35q0 25 37 69q12 13 47 58
q35 46 45 61q31 43 58 43z" />
    <glyph glyph-name="pi" unicode="&#x3c0;" horiz-adv-x="1119" 
d="M281 0v887h-150v93h1020v-93h-148v-887h-102v887h-518v-887h-102z" />
    <glyph glyph-name="endash" unicode="&#x2013;" 
d="M262 489q33 0 86 -2q97 -3 127 -3q67 0 90 -13q21 -12 21 -44q0 -31 -20 -48q-12 -9 -28 -9q-11 0 -37 3q-40 4 -230 4q-111 0 -168 -11q-27 -5 -43 -5q-29 0 -46 26q-8 13 -8 30q0 52 56 63q43 9 200 9z" />
    <glyph glyph-name="emdash" unicode="&#x2014;" horiz-adv-x="1014" 
d="M496 484q277 0 363 -12q87 -11 87 -59q0 -49 -55 -49q-20 0 -54 3q-133 10 -371 10q-115 0 -218 -4q-194 -9 -216 -12q-25 -3 -39 -3q-31 0 -49 22q-12 13 -12 33q0 41 44 49q39 8 209 15q152 7 311 7z" />
    <glyph glyph-name="quoteleft" unicode="&#x2018;" horiz-adv-x="205" 
d="M577 1399q21 0 34 -19q9 -12 9 -27q0 -23 -43 -62q-122 -116 -143 -274q-5 -29 -27 -44q-20 -14 -40 -14q-46 0 -46 58q0 92 101 239q41 60 97 110q36 33 58 33z" />
    <glyph glyph-name="quoteright" unicode="&#x2019;" horiz-adv-x="423" 
d="M646 1399q47 0 47 -59q0 -91 -101 -238q-41 -60 -97 -110q-36 -33 -58 -33q-21 0 -34 19q-9 12 -9 28q0 22 43 61q122 117 143 274q5 29 27 45q20 13 39 13z" />
    <glyph glyph-name="quotesinglbase" unicode="&#x201a;" horiz-adv-x="423" 
d="M20 147q47 0 47 -59q0 -91 -101 -238q-41 -60 -97 -110q-36 -33 -58 -33q-21 0 -34 19q-9 12 -9 28q0 22 43 61q122 117 143 274q5 29 27 45q20 13 39 13z" />
    <glyph glyph-name="quotedblleft" unicode="&#x201c;" horiz-adv-x="437" 
d="M577 1399q21 0 34 -19q9 -12 9 -27q0 -23 -43 -62q-122 -116 -143 -274q-5 -29 -27 -44q-20 -14 -40 -14q-46 0 -46 58q0 92 101 239q41 60 97 110q36 33 58 33zM809 1399q20 0 34 -19q9 -12 9 -27q0 -23 -43 -62q-122 -116 -143 -274q-5 -29 -27 -44q-20 -14 -40 -14
q-46 0 -46 58q0 92 101 239q42 61 97 110q36 33 58 33z" />
    <glyph glyph-name="quotedblright" unicode="&#x201d;" horiz-adv-x="461" 
d="M549 1399q47 0 47 -59q0 -91 -101 -238q-41 -60 -97 -110q-36 -33 -58 -33q-21 0 -34 19q-9 12 -9 28q0 22 43 61q122 117 143 274q5 29 27 45q20 13 39 13zM781 1399q47 0 47 -59q0 -91 -101 -238q-41 -60 -97 -110q-36 -33 -58 -33q-21 0 -34 19q-9 12 -9 28
q0 22 43 61q123 117 143 274q5 29 27 45q20 13 39 13z" />
    <glyph glyph-name="quotedblbase" unicode="&#x201e;" horiz-adv-x="461" 
d="M-38 232q47 0 47 -58q0 -92 -101 -239q-41 -61 -97 -110q-36 -33 -58 -33q-18 0 -30.5 14t-12.5 33q0 22 43 61q122 117 143 274q5 29 27 44q20 14 39 14zM194 232q47 0 47 -58q0 -92 -101 -239q-41 -61 -97 -110q-36 -33 -58 -33q-21 0 -34 19q-9 11 -9 28q0 22 43 61
q122 117 143 274q4 25 23 41.5t43 16.5z" />
    <glyph glyph-name="dagger" unicode="&#x2020;" 
d="M680 1093q78 12 125 12q55 0 80 -22q14 -12 14 -29q0 -24 -20 -41q-10 -9 -26 -9q-9 0 -26 1q-37 3 -73 3q-57 0 -126 -11q-105 -210 -208 -438q-11 -26 -95 -205q-147 -311 -202 -454q-60 -158 -73 -222q-17 -73 -58 -73q-20 0 -35 17t-15 37q0 37 56 188q37 100 63 166
q25 62 109 236q64 134 164 356q75 169 185 378q-43 -4 -72 -4q-133 0 -133 44q0 27 36 47q18 10 38 10q13 0 32 -2q41 -4 67 -4q24 0 84 5q59 108 113 189q50 77 59 86q16 19 36 19q36 0 36 -37q0 -21 -33 -71q-73 -114 -102 -172z" />
    <glyph glyph-name="daggerdbl" unicode="&#x2021;" 
d="M339 413l-14 -28l-14 -31q-146 -312 -201 -454q-60 -157 -74 -222q-17 -73 -58 -73q-20 0 -35 17t-15 37q0 37 56 188q36 100 64 166q23 58 108 236q20 42 72 153q-80 -7 -142 -7q-82 0 -82 51q0 26 29 41q19 10 41 10q17 0 68 -4q26 -2 54 -2q27 0 73 2l25 55
q101 226 211 435q-43 -4 -72 -4q-133 0 -133 44q0 27 36 47q18 10 38 10q13 0 32 -2q41 -4 67 -4q24 0 84 5q59 108 113 189q50 77 59 86q16 19 36 19q36 0 36 -37q0 -21 -33 -71q-73 -114 -102 -172q78 12 125 12q55 0 80 -22q14 -12 14 -29q0 -24 -20 -41q-10 -9 -26 -9
q-9 0 -26 1q-37 3 -73 3q-57 0 -126 -11q-105 -210 -208 -438q-5 -13 -26 -56q30 2 39 3q58 6 82 6q25 0 45 -7q45 -14 45 -46t-46 -45q-11 -3 -22 -3q-12 0 -67 4q-21 1 -45 1q-30 0 -72 -3z" />
    <glyph glyph-name="bullet" unicode="&#x2022;" horiz-adv-x="1365" 
d="M771 978q113 0 196 -83q84 -83 84 -201t-83 -201t-201 -83q-116 0 -199 82q-85 84 -85 202q0 121 84 202q86 82 204 82z" />
    <glyph glyph-name="ellipsis" unicode="&#x2026;" horiz-adv-x="1270" 
d="M36 151q22 0 37 -20q10 -13 10 -33q0 -47 -26 -99q-27 -55 -71 -55q-46 0 -46 52t32 106q29 49 64 49zM459 151q22 0 37 -20q10 -14 10 -33q0 -47 -26 -99q-27 -55 -71 -55q-46 0 -46 52t32 106q29 49 64 49zM883 151q21 0 36 -20q10 -13 10 -33q0 -47 -25 -99
q-28 -55 -72 -55q-45 0 -45 52t32 106q28 49 64 49z" />
    <glyph glyph-name="perthousand" unicode="&#x2030;" horiz-adv-x="1693" 
d="M538 1130q34 -13 50.5 -41.5t16.5 -72.5q0 -135 -109 -284q-120 -164 -231 -164q-57 0 -86 56q-18 35 -18 86q0 119 91 251q73 104 178 178q49 35 74 35q34 0 34 -44zM453 1076q-71 -55 -125 -135q-79 -115 -79 -222q0 -36 11.5 -54.5t33.5 -18.5q41 0 98 60
q65 68 103 168q29 75 29 126q0 34 -22 59q-15 17 -49 17zM1108 1194q18 0 31 -16q11 -13 11 -27q0 -83 -382 -474q-241 -249 -341 -388q-92 -128 -165 -257q-27 -47 -62 -47q-14 0 -26 10q-13 13 -13 29q0 27 66 132q74 117 251 330q65 78 261 282q162 166 271 326
q43 65 56 78q21 22 42 22zM1026 584q33 -14 49.5 -42.5t16.5 -71.5q0 -135 -109 -284q-119 -164 -230 -164q-57 0 -86 56q-18 36 -18 86q0 119 91 251q73 105 177 178q49 35 75 35q34 0 34 -44zM941 530q-70 -54 -125 -135q-79 -115 -79 -222q0 -36 11.5 -54.5t33.5 -18.5
q40 0 98 60q65 69 103 168q28 75 28 126q0 34 -22 59q-15 17 -48 17zM1497 584q33 -14 49.5 -42.5t16.5 -71.5q0 -135 -109 -284q-120 -164 -231 -164q-57 0 -86 56q-18 36 -18 86q0 120 91 251q73 104 178 178q49 35 75 35q34 0 34 -44zM1412 530q-71 -55 -126 -135
q-79 -115 -79 -222q0 -36 11.5 -54.5t33.5 -18.5q41 0 98 60q65 69 103 168q29 75 29 126q0 34 -22 59q-15 17 -48 17z" />
    <glyph glyph-name="guilsinglleft" unicode="&#x2039;" horiz-adv-x="344" 
d="M155 577q21 0 36 -16q16 -18 16 -32q0 -24 -49 -61q-56 -42 -56 -75q0 -24 24 -66q25 -44 25 -56q0 -21 -18 -39t-40 -18q-42 0 -76 72q-31 68 -31 103q0 56 73 127q61 61 96 61z" />
    <glyph glyph-name="guilsinglright" unicode="&#x203a;" horiz-adv-x="344" 
d="M87 563q42 0 76 -72q31 -67 31 -104q0 -51 -73 -126q-59 -60 -95 -60q-21 0 -37 16q-16 17 -16 32q0 24 49 61q56 41 56 74q0 25 -24 67q-25 44 -25 55q0 21 17 39q19 18 41 18z" />
    <glyph glyph-name="Euro" unicode="&#x20ac;" 
d="M779 887q0 -85 -67 -199q-41 -69 -78 -79q-19 -5 -43 11q-17 12 -22 29q-12 45 38 93q95 90 95 167q0 62 -55 62q-112 0 -233 -107q-99 -87 -176 -215q11 0 57 -2q77 -3 109 -3q95 0 95 -57q0 -56 -41 -56q-12 0 -32 2q-39 4 -196 4q-20 0 -48 -1q-24 -58 -37 -97
q21 0 70 -2q77 -3 109 -3q95 0 95 -57q0 -56 -41 -56q-12 0 -32 2q-39 4 -196 4h-34q-10 -54 -10 -100q0 -65 39 -114q42 -53 105 -53q82 0 150 81q43 52 110 183q15 29 35 29q29 0 22 -25q-48 -169 -118 -253q-93 -112 -247 -112q-102 0 -165 80q-57 74 -57 178q0 47 5 91
q-7 -1 -15 -1q-48 0 -48 56q0 52 48 63q12 3 39 5q12 45 29 87q-36 9 -36 55q0 52 48 63q16 4 49 6q37 62 85 120q109 132 183 189q131 102 276 102q136 0 136 -170z" />
    <glyph glyph-name="trademark" unicode="&#x2122;" horiz-adv-x="1293" 
d="M618 1266q-104 -18 -198 -42q-23 -8 -36 -8q-16 0 -27 14q-7 9 -7 21q0 29 41 41q271 81 544 81q52 0 70 -7q20 -7 20 -27q0 -33 -46 -38q-34 -3 -106 -5q-131 -4 -174 -13q4 -12 4 -18q0 -11 -20 -39q-109 -154 -210 -352q-77 -151 -112 -266q-10 -40 -34 -40
q-22 0 -36 21q-9 14 -9 29q0 53 102 253q76 150 227 383zM1039 843q144 216 301 410q60 74 94 107q30 27 56 27q19 0 31 -12q11 -11 11 -26q0 -22 -25 -64q-4 -8 -47 -81q-123 -211 -186 -374q-46 -119 -46 -166q0 -7 1 -12q2 -25 2 -27q0 -19 -14 -35q-14 -15 -30 -15
q-20 0 -33 22q-9 15 -9 43q0 148 244 575q-94 -115 -147 -188q-40 -56 -128 -192q-68 -105 -116 -105q-46 0 -46 54q0 60 34 157q24 67 113 241q-103 -126 -216 -321q-59 -107 -122 -251q-29 -65 -67 -65q-26 0 -26 26q0 13 22 61q115 265 288 495q180 240 229 240
q14 0 27 -12q16 -14 16 -32t-25 -59q-70 -110 -128 -245q-45 -110 -58 -176z" />
    <glyph glyph-name="Omega" unicode="&#x2126;" horiz-adv-x="1365" 
d="M140 0v93h402q-402 229 -402 647q0 325 241 522q167 136 384 136t384 -136q241 -197 241 -522q0 -262 -164 -454q-97 -113 -238 -193h402v-93h-528v85q155 88 240 180q183 198 183 465q0 276 -196 450q-140 125 -321 125t-319 -115q-204 -168 -204 -460q0 -406 423 -645
v-85h-528z" />
    <glyph glyph-name="partialdiff" unicode="&#x2202;" horiz-adv-x="1024" 
d="M275 1284l14 93q158 -23 262 -70q246 -108 376 -365q106 -210 106 -462q0 -185 -79 -307q-65 -100 -172 -153q-88 -44 -185 -44q-155 0 -279 105q-162 139 -162 356q0 151 87 275q66 95 170 142q83 38 174 38q139 0 232 -73q37 -30 88 -101q-63 176 -106 240
q-97 145 -261 240q-114 64 -265 86zM603 812q-119 0 -214 -81q-52 -45 -86 -116q-43 -88 -43 -183q0 -168 113 -280q96 -95 224 -95q119 0 211 85q121 112 121 302q0 191 -116 291q-90 77 -210 77z" />
    <glyph glyph-name="Delta" unicode="&#x2206;" horiz-adv-x="1365" 
d="M147 0l562 1365h109l564 -1365h-1235zM294 96h939l-469 1144z" />
    <glyph glyph-name="product" unicode="&#x220f;" horiz-adv-x="1403" 
d="M154 1536h1258v-95h-159v-1857h159v-96h-432v96h171v1857h-736v-1857h169v-96h-430v96h159v1857h-159v95z" />
    <glyph glyph-name="summation" unicode="&#x2211;" horiz-adv-x="1365" 
d="M1289 1536v-450h-95l-8 353h-927l519 -884l-519 -971h947l4 349h98v-445h-1163v109l513 958l-513 876v105h1144z" />
    <glyph glyph-name="fraction" unicode="&#x2215;" horiz-adv-x="326" 
d="M674 1194q18 0 31 -16q11 -13 11 -27q0 -83 -382 -474q-241 -249 -341 -388q-92 -128 -165 -257q-27 -47 -62 -47q-14 0 -26 10q-13 13 -13 29q0 27 66 132q74 117 251 330q65 78 261 282q162 166 271 326q43 65 56 78q21 22 42 22z" />
    <glyph glyph-name="periodcentered" unicode="&#x2219;" horiz-adv-x="423" 
d="M186 571q22 0 37 -20q10 -13 10 -33q0 -47 -26 -98q-28 -56 -71 -56q-46 0 -46 52t32 106q28 49 64 49z" />
    <glyph glyph-name="radical" unicode="&#x221a;" horiz-adv-x="1365" 
d="M1447 1696v-96h-416l-483 -1600h-116l-189 635h-161v96h244l91 -298q9 -30 32 -125q31 -121 39 -151h6q10 41 50 185l57 210l106 348l237 796h503z" />
    <glyph glyph-name="infinity" unicode="&#x221e;" horiz-adv-x="1365" 
d="M767 626q-159 -235 -345 -235q-97 0 -171 48q-67 43 -100 117q-30 68 -30 145q0 164 123 248q80 55 178 55q187 0 341 -235q46 69 85 111q116 124 262 124q156 0 239 -114q59 -81 59 -195q0 -147 -94 -230q-85 -75 -203 -75q-143 0 -257 122q-42 44 -87 114zM817 698
q38 -61 72 -101q98 -118 214 -118q95 0 153 70q50 59 50 147q0 116 -78 175q-57 44 -127 44q-121 0 -220 -127q-21 -26 -44 -61zM712 696q-37 61 -72 102q-98 117 -213 117q-95 0 -154 -70q-50 -59 -50 -147q0 -115 79 -174q57 -44 127 -44q121 0 220 126q22 28 44 61z" />
    <glyph glyph-name="integral" unicode="&#x222b;" horiz-adv-x="1024" 
d="M316 -490l26 91q48 -20 84 -20q91 0 109 83q7 34 7 153v1372q0 173 16 224q17 55 68 89q50 34 126 34q52 0 118 -23l-26 -91q-48 21 -84 21q-91 0 -109 -83q-7 -34 -7 -192v-1334q0 -136 -8 -187q-12 -78 -75 -119q-59 -38 -146 -38q-50 0 -99 20z" />
    <glyph glyph-name="approxequal" unicode="&#x2248;" horiz-adv-x="1024" 
d="M169 712l-65 42q36 70 76 120q78 96 193 96q79 0 236 -79q105 -52 142 -62q35 -10 65 -10q75 0 128 54q35 35 73 101l67 -39q-111 -214 -274 -214q-49 0 -133 30q-16 6 -155 74q-98 48 -159 48q-105 0 -194 -161zM169 400l-65 41q35 70 76 120q78 97 193 97q79 0 236 -79
q105 -52 142 -62q35 -10 65 -10q75 0 128 53q34 35 73 102l67 -40q-111 -213 -273 -213q-53 0 -134 30q-24 10 -155 74q-98 48 -158 48q-106 0 -195 -161z" />
    <glyph glyph-name="notequal" unicode="&#x2260;" 
d="M357 717q14 22 18 29q44 75 73 75q19 0 37 -20q13 -14 13 -28q0 -19 -32 -59q76 -1 103 -3q41 -3 54 -14q12 -10 12 -34q0 -26 -18 -41q-10 -8 -25 -8q-11 0 -36 2q-39 3 -147 4q-54 -91 -71 -122l24 -1q169 -4 193 -8q39 -6 39 -44q0 -50 -43 -50q-11 0 -36 3
q-26 2 -167 4h-57q-10 -21 -14 -30q-10 -28 -16 -40q-14 -24 -43 -24q-24 0 -40 21q-11 14 -11 29t8 39l-20 -2q-40 -3 -40 -4q-30 -5 -43 -5q-25 0 -39 22q-8 12 -8 27q0 54 92 61q19 1 110 2q9 15 23 40q16 31 48 82q-72 -3 -142 -10q-26 -5 -42 -5q-25 0 -40 22
q-8 11 -8 27q0 45 52 55q41 8 239 8z" />
    <glyph glyph-name="lessequal" unicode="&#x2264;" horiz-adv-x="1024" 
d="M1037 1200v-100l-776 -338l776 -338v-100l-887 390v93zM1037 263v-96h-887v96h887z" />
    <glyph glyph-name="greaterequal" unicode="&#x2265;" horiz-adv-x="1024" 
d="M150 324v100l776 338l-776 338v100l887 -394v-92zM150 167v96h887v-96h-887z" />
    <glyph glyph-name="lozenge" unicode="&#x25ca;" horiz-adv-x="1365" 
d="M765 1419l531 -736l-531 -736l-532 736zM765 1238l-404 -555l404 -554l403 554z" />
    <glyph glyph-name="fi" unicode="&#xf001;" horiz-adv-x="779" 
d="M107 550q153 330 299 537q99 140 164 204q45 45 77 45q12 0 21 -8q14 -10 14 -27q0 -22 -35 -63q-221 -252 -400 -604q160 61 223 61q46 0 76 -23q31 -24 31 -55q0 -16 -11 -29q-15 -19 -39 -19q-17 0 -67 28q-14 7 -36 7q-100 0 -240 -91q60 -28 85 -74q34 -65 34 -160
q0 -245 -146 -517q-63 -116 -122 -176q-63 -65 -129 -65q-50 0 -81 48q-25 40 -25 109q0 148 112 445q14 36 80 185q17 37 33 79q-8 -2 -15 -2q-27 0 -27 30q0 53 124 135zM141 419q-56 -106 -148 -342q-95 -241 -95 -374q0 -26 13 -46q14 -20 33 -20q62 0 163 208
q114 232 114 425q0 75 -29 113q-11 15 -51 36zM713 677q16 0 28 -13q8 -11 8 -22q0 -17 -29 -60q-103 -159 -148 -265q-47 -108 -83 -220q-15 -50 -50 -50q-20 0 -33 16q-10 13 -10 28q0 30 64 200q50 135 162 296q36 53 54 71q18 19 37 19zM902 1048q21 0 34 -14
q11 -13 11 -32q0 -42 -43 -93q-43 -49 -81 -49q-19 0 -32 14q-11 13 -11 32q0 48 53 102q39 40 69 40z" />
    <glyph glyph-name="fl" unicode="&#xf002;" horiz-adv-x="840" 
d="M128 622q18 32 103 195q122 233 270 417q87 108 121 108q13 0 27 -16q10 -13 10 -28q0 -22 -28 -53q-113 -124 -202 -266q-102 -164 -218 -389q53 -10 93 -10q71 0 183 31q101 228 299 508q85 120 166 178q64 46 109 46q33 0 55 -28q19 -22 19 -49q0 -81 -95 -240
q-89 -149 -257 -300q-111 -100 -222 -157q-40 -97 -63 -158q-40 -105 -40 -172q0 -40 27 -40q57 0 164 151q38 53 57 53q9 0 18 -11q6 -8 6 -18q0 -50 -102 -172q-110 -132 -198 -132q-43 0 -64 37q-18 30 -18 76q0 109 43 212q41 98 51 125q-73 -16 -96 -18q-7 -1 -40 -2
q-8 0 -36 -1q30 -48 39 -87q11 -47 11 -105q0 -197 -113 -458q-154 -355 -301 -355q-60 0 -88 70q-18 43 -18 117q0 284 276 834q-72 25 -72 77q0 22 17 34q19 14 47 14q29 0 60 -18zM159 477q-62 -108 -164 -379q-107 -282 -107 -411q0 -22 8 -40q14 -33 41 -33
q63 0 168 212q134 270 134 481q0 74 -30 123q-12 20 -50 47zM613 671q204 148 321 340q90 148 90 191q0 18 -18 18q-50 0 -181 -192q-151 -221 -212 -357z" />
    <glyph glyph-name="glyph172" 
 />
  </font>
</defs>
</svg>
